百度云资源论坛

 找回密码
 立即注册
搜索
热搜: 百度云资源
开启左侧

偷心女盗 The.Hustle.2019.720p.BluRay.x264-DRONES 4.39GB

[复制链接]
百度云资源 发表于 2019-8-14 08:57:09 | 显示全部楼层 |阅读模式





帖子完整标题:偷心女盗 The.Hustle.2019.720p.BluRay.x264-DRONES 4.39GB





◎译  名 偷心女盗 / Dirty Rotten Scoundrels / Nasty Women / 圆美大盗(港) / 坏坏女郎 / 诈骗女神(台)
◎片  名 The Hustle
◎年  代 2019
◎产  地 美国
◎类  别 喜剧
◎语  言 英语
◎上映日期 2019-05-10(美国)
◎IMDb评分  5.4/10 from 9025 users
◎片  长 93分钟
◎导  演 克里斯·艾迪生 Chris Addison
◎编  剧 斯坦利·沙皮罗 Stanley Shapiro / 保罗·海宁 Paul Henning / 戴尔·劳纳尔 Dale Launer / 雅克·舍费尔 Jac Schaeffer
◎主  演 安妮·海瑟薇 Anne Hathaway
       蕾蓓尔·威尔森 Rebel Wilson
       蒂姆·布雷克·尼尔森 Tim Blake Nelson
       艾利克斯·夏普 Alex Sharp
       罗非洛·迪格托勒 Raffaello Degruttola
       迪诺·布加迪 Deano Bugatti
       布鲁诺·塞维利亚 Bruno Sevilla
       克里斯多夫·德·舒瓦西 Christophe de Choisy
       菲利普·德斯穆尔斯 Philip Desmeules
       库姆德·潘特 Kumud Pant
       塞缪尔·加斯帕德 Samuel Gaspard


◎标  签 喜剧 | 美国 | 2019 | 犯罪 | 搞笑 | 女性 | 翻拍 | 把妹

◎简  介  

  安妮·海瑟薇将加盟蕾蓓尔·威尔森新片《坏坏女郎》(Nasty Women,暂译)。影片翻拍自1988年弗兰克·奥兹执导,史蒂夫·马丁、迈克尔·凯恩主演的《骗徒臭事多》。片中安妮·海瑟薇、蕾蓓尔·威尔森化身女版骗徒,当然此次她们的目标将是鲜嫩多汁的“单身男子”。
Video
ID                                       : 1
Format                                   : AVC
Format/Info                              : Advanced Video Codec
Format settings                          : CABAC / 5 Ref Frames
Format settings, CABAC                   : Yes
Format settings, Reference frames        : 5 frames
Codec ID                                 : V_MPEG4/ISO/AVC
Duration                                 : 1 h 33 min
Bit rate                                 : 5 149 kb/s
Width                                    : 1 280 pixels
Height                                   : 536 pixels
Display aspect ratio                     : 2.40:1
Frame rate mode                          : Constant
Frame rate                               : 23.976 (24000/1001) FPS
Color space                              : YUV
Chroma subsampling                       : 4:2:0
Bit depth                                : 8 bits
Scan type                                : Progressive
Bits/(Pixel*Frame)                       : 0.313
Stream size                              : 3.38 GiB (77%)
Writing library                          : x264 core 158 r2984 3759fcb
Encoding settings                        : cabac=1 / ref=5 / deblock=1:-3:-3 / analyse=0x3:0x133 / me=umh / subme=8 / psy=1 / psy_rd=1.00:0.00 / mixed_ref=1 / me_range=16 / chroma_me=1 / trellis=1 / 8x8dct=1 / cqm=0 / deadzone=21,11 / fast_pskip=0 / chroma_qp_offset=-2 / threads=17 / lookahead_threads=2 / sliced_threads=0 / nr=0 / decimate=1 / interlaced=0 / bluray_compat=0 / constrained_intra=0 / bframes=3 / b_pyramid=2 / b_adapt=1 / b_bias=0 / direct=3 / weightb=1 / open_gop=0 / weightp=2 / keyint=250 / keyint_min=23 / scenecut=40 / intra_refresh=0 / rc_lookahead=50 / rc=2pass / mbtree=1 / bitrate=5149 / ratetol=1.0 / qcomp=0.60 / qpmin=0 / qpmax=69 / qpstep=4 / cplxblur=20.0 / qblur=0.5 / vbv_maxrate=62500 / vbv_bufsize=78125 / nal_hrd=none / filler=0 / ip_ratio=1.40 / aq=1:1.00
Default                                  : Yes
Forced                                   : No

Audio
ID                                       : 2
Format                                   : DTS
Format/Info                              : Digital Theater Systems
Codec ID                                 : A_DTS
Duration                                 : 1 h 33 min
Bit rate mode                            : Constant
Bit rate                                 : 1 509 kb/s
Channel(s)                               : 6 channels
Channel layout                           : C L R Ls Rs LFE
Sampling rate                            : 48.0 kHz
Frame rate                               : 93.750 FPS (512 SPF)
Bit depth                                : 24 bits
Compression mode                         : Lossy
Stream size                              : 1 014 MiB (23%)
Language                                 : English
Default                                  : Yes
Forced                                   : No

Menu
00:00:00.000                             : en:00:00:00.000
00:05:58.858                             : en:00:05:58.858
00:09:56.137                             : en:00:09:56.137
00:15:29.554                             : en:00:15:29.554
00:21:12.646                             : en:00:21:12.646
00:25:19.852                             : en:00:25:19.852
00:32:26.903                             : en:00:32:26.903
00:37:56.608                             : en:00:37:56.608
00:41:51.300                             : en:00:41:51.300
00:44:55.818                             : en:00:44:55.818
00:49:56.327                             : en:00:49:56.327
00:54:34.897                             : en:00:54:34.897
00:59:16.261                             : en:00:59:16.261
01:02:15.899                             : en:01:02:15.899
01:06:47.587                             : en:01:06:47.587
01:09:58.152                             : en:01:09:58.152
01:15:16.178                             : en:01:15:16.178
01:21:37.059                             : en:01:21:37.059
01:28:58.833                             : en:01:28:58.833
01:32:27.041                             : en:01:32:27.041




                                                                                                                                                                                                        
                                                                                                                                                                                                                                                                                                                                                                                                                                                                                                                                                                                                                                                                                                                                                                                                                                                      
8023493b7c3f4153e070056a9cc90e93.torrent (44.74 KB, 下载次数: 0)

回复

使用道具 举报

小黑屋|百度云资源论坛 ( 闽ICP备16005822号-1 )

本网站所有资源来自网络,如无意中侵犯了您的权益,请发邮件至 [email protected],立即清除相关链接

GMT+8, 2019-8-26 16:22 , Processed in 0.066685 second(s), 19 queries .

Powered by Discuz! X3.2

© 2001-2013 Comsenz Inc.

快速回复 返回顶部 返回列表