百度云资源论坛

 找回密码
 立即注册
搜索
热搜: 百度云资源
开启左侧

魔童/明亮的燃烧 Brightburn.2019.720p.BluRay.x264-GECKOS 4.38GB

[复制链接]
百度云资源 发表于 2019-8-14 08:57:11 | 显示全部楼层 |阅读模式





帖子完整标题:魔童/明亮的燃烧 Brightburn.2019.720p.BluRay.x264-GECKOS 4.38GB





◎译  名 魔童 / 明亮的燃烧 / 灵异乍现(台) / 魔童(港)
◎片  名 Brightburn
◎年  代 2019
◎产  地 美国
◎类  别 恐怖
◎语  言 英语
◎上映日期 2019-05-24(美国)
◎IMDb评分  6.5/10 from 13989 users
◎片  长 91分钟
◎导  演 大卫·雅洛维斯基 David Yarovesky
◎编  剧 布莱恩·戈恩 Brian Gunn / 马克·戈恩 Mark Gunn
◎主  演 伊丽莎白·班克斯 Elizabeth Banks
      大卫·丹曼 David Denman
      梅瑞迪斯·海格纳 Meredith Hagner
      马特·琼斯 Matt Jones
      詹尼佛霍兰德 Jennifer Holland
      贝基·瓦赫尔斯特罗姆 Becky Wahlstrom
      特伦斯·罗斯摩尔 Terence Rosemore
      史蒂芬·布莱克哈特 Stephen Blackehart
      史蒂夫·阿吉 Steve Agee
      杰克逊·艾顿 Jackson A. Dunn
      安妮·汉弗莱 Annie Humphrey
      克里斯蒂安·芬拉森 Christian Finlayson
      艾美·亨特 Emmie Hunter
      迈克·顿斯顿 Mike Dunston


◎标  签 恐怖 | 惊悚 | 科幻 | 美国 | 超人 | 2019 | 灵异 | 悬疑

◎简  介  

  一对没有孩子的乡村夫妻从家附近的宇宙飞船里捡到了一个婴儿抚养长大,渐渐的发现这个孩子有点与众不同,各种超自然能力在他身上显现出来,他披上了斗篷...但穿上斗篷的不一定都是英雄...

Video
ID                                       : 1
Format                                   : AVC
Format/Info                              : Advanced Video Codec
Format settings                          : CABAC / 5 Ref Frames
Format settings, CABAC                   : Yes
Format settings, Reference frames        : 5 frames
Codec ID                                 : V_MPEG4/ISO/AVC
Duration                                 : 1 h 30 min
Bit rate                                 : 5 404 kb/s
Width                                    : 1 280 pixels
Height                                   : 536 pixels
Display aspect ratio                     : 2.40:1
Frame rate mode                          : Constant
Frame rate                               : 23.976 (24000/1001) FPS
Color space                              : YUV
Chroma subsampling                       : 4:2:0
Bit depth                                : 8 bits
Scan type                                : Progressive
Bits/(Pixel*Frame)                       : 0.329
Stream size                              : 3.42 GiB (78%)
Writing library                          : x264 core 158 r2984 3759fcb
Encoding settings                        : cabac=1 / ref=5 / deblock=1:-3:-3 / analyse=0x3:0x113 / me=umh / subme=8 / psy=1 / psy_rd=1.00:0.00 / mixed_ref=1 / me_range=16 / chroma_me=1 / trellis=1 / 8x8dct=1 / cqm=0 / deadzone=21,11 / fast_pskip=1 / chroma_qp_offset=-2 / threads=17 / lookahead_threads=2 / sliced_threads=0 / nr=0 / decimate=1 / interlaced=0 / bluray_compat=0 / constrained_intra=0 / bframes=3 / b_pyramid=2 / b_adapt=1 / b_bias=0 / direct=3 / weightb=1 / open_gop=0 / weightp=2 / keyint=250 / keyint_min=23 / scenecut=40 / intra_refresh=0 / rc_lookahead=50 / rc=2pass / mbtree=1 / bitrate=5404 / ratetol=1.0 / qcomp=0.60 / qpmin=0 / qpmax=69 / qpstep=4 / cplxblur=20.0 / qblur=0.5 / ip_ratio=1.40 / aq=1:1.00
Language                                 : English
Default                                  : Yes
Forced                                   : No

Audio
ID                                       : 2
Format                                   : DTS
Format/Info                              : Digital Theater Systems
Codec ID                                 : A_DTS
Duration                                 : 1 h 30 min
Bit rate mode                            : Constant
Bit rate                                 : 1 509 kb/s
Channel(s)                               : 6 channels
Channel layout                           : C L R Ls Rs LFE
Sampling rate                            : 48.0 kHz
Frame rate                               : 93.750 FPS (512 SPF)
Bit depth                                : 24 bits
Compression mode                         : Lossy
Stream size                              : 977 MiB (22%)
Language                                 : English
Default                                  : Yes
Forced                                   : No




                                                                                                                                                                                                        
                                                                                                                                                                                                                                                                                                                                                                                                                                                                                                                                                                                                                                                                                                                                                                                                                                                      
2d5f65c84f346bd20161c8b4f0dd0c4e.torrent (44.64 KB, 下载次数: 0)

回复

使用道具 举报

小黑屋|百度云资源论坛 ( 闽ICP备16005822号-1 )

本网站所有资源来自网络,如无意中侵犯了您的权益,请发邮件至 [email protected],立即清除相关链接

GMT+8, 2019-8-26 16:24 , Processed in 0.067410 second(s), 19 queries .

Powered by Discuz! X3.2

© 2001-2013 Comsenz Inc.

快速回复 返回顶部 返回列表