百度云资源论坛

 找回密码
 立即注册
搜索
热搜: 百度云资源
开启左侧

催眠术师 The.Mesmerist.2003.720p.BluRay.x264-BiPOLAR 635.75MB

[复制链接]
百度云电影 发表于 2019-9-8 07:16:10 | 显示全部楼层 |阅读模式




帖子完整标题:催眠术师 The.Mesmerist.2003.720p.BluRay.x264-BiPOLAR 635.75MB





◎译  名 催眠术师
◎片  名 The Mesmerist
◎年  代 2003
◎产  地 美国
◎类  别 短片 / 犯罪
◎语  言 英语
◎IMDb评分  6.3/10 from 71 users
◎片  长 USA: 16 分钟
◎导  演 比尔·莫里森 Bill Morrison
◎编  剧 Emile Erckmann / 比尔·莫里森 Bill Morrison / James Young
◎主  演 莱昂纳尔·巴里摩尔 Lionel Barrymore
       波利斯·卡洛夫 Boris Karloff
       Laura La Varnie
       E. Alyn Warren


◎标  签 短片 | 美国 | 实验 | Bill_Morrison | 2003 | 2000s | 比尔·莫里森 | 正在下

◎简  介  

  暂无相关剧情介绍
Video
ID                                       : 1
Format                                   : AVC
Format/Info                              : Advanced Video Co
Format settings                          : CABAC / 5 Ref Frames
Format settings, CABAC                   : Yes
Format settings, Reference frames        : 5 frames
Codec ID                                 : V_MPEG4/ISO/AVC
Duration                                 : 16 min 0 s
Bit rate                                 : 4 757 kb/s
Width                                    : 960 pixels
Height                                   : 720 pixels
Display aspect ratio                     : 4:3
Frame rate mode                          : Constant
Frame rate                               : 23.976 (24000/1001) FPS
Color space                              : YUV
Chroma subsampling                       : 4:2:0
Bit depth                                : 8 bits
Scan type                                : Progressive
Bits/(Pixel*Frame)                       : 0.287
Stream size                              : 545 MiB (86%)
Writing library                          : x264 core 157 r2969 d4099dd
Encoding settings                        : cabac=1 / ref=5 / deblock=1:-3:-3 / analyse=0x3:0x133 / me=umh / subme=9 / psy=1 / psy_rd=1.00:0.00 / mixed_ref=1 / me_range=16 / chroma_me=1 / trellis=2 / 8x8dct=1 / cqm=0 / deadzone=21,11 / fast_pskip=0 / chroma_qp_offset=-2 / threads=18 / lookahead_threads=1 / sliced_threads=0 / nr=0 / decimate=1 / interlaced=0 / bluray_compat=0 / constrained_intra=0 / bframes=3 / b_pyramid=2 / b_adapt=1 / b_bias=0 / direct=3 / weightb=1 / open_gop=0 / weightp=2 / keyint=240 / keyint_min=24 / scenecut=40 / intra_refresh=0 / rc_lookahead=50 / rc=2pass / mbtree=1 / bitrate=4757 / ratetol=1.0 / qcomp=0.60 / qpmin=0 / qpmax=69 / qpstep=4 / cplxblur=20.0 / qblur=0.5 / ip_ratio=1.40 / aq=1:1.00
Language                                 : English
Default                                  : Yes
Forced                                   : No

Audio
ID                                       : 2
Format                                   : FLAC
Format/Info                              : Free Lossless Audio Codec
Codec ID                                 : A_FLAC
Duration                                 : 16 min 0 s
Bit rate mode                            : Variable
Bit rate                                 : 791 kb/s
Channel(s)                               : 2 channels
Channel layout                           : L R
Sampling rate                            : 48.0 kHz
Frame rate                               : 11.719 FPS (4096 SPF)
Bit depth                                : 24 bits
Compression mode                         : Lossless
Stream size                              : 90.6 MiB (14%)
Writing library                          : libFLAC 1.2.1 (UTC 2007-09-17)
Default                                  : Yes
Forced                                   : No

Menu
00:00:00.000                             : en:00:00:00.000
00:08:16.621                             : en:00:08:16.621




                                                                                                                                                                                                        
                                                                                                                                                                                                                                                                                                                                                                                                                                                                                                                                                                                                                                                                                                                                                                                                                                                      
af7427ec75ec8be34b465648797b55cb.torrent (13.04 KB, 下载次数: 0)

回复

使用道具 举报

小黑屋|百度云资源论坛 ( 闽ICP备16005822号-1 )

本网站所有资源来自网络,如无意中侵犯了您的权益,请发邮件至 [email protected],立即清除相关链接

GMT+8, 2019-9-20 03:55 , Processed in 0.095534 second(s), 19 queries .

Powered by Discuz! X3.2

© 2001-2013 Comsenz Inc.

快速回复 返回顶部 返回列表