百度云资源论坛

 找回密码
 立即注册
搜索
热搜: 百度云资源
开启左侧

诡风怪谈 The.Wind.2018.LiMiTED.1080p.BluRay.x264-CADAVER 6.56GB

[复制链接]
百度云电影 发表于 2019-9-8 07:16:19 | 显示全部楼层 |阅读模式




帖子完整标题:诡风怪谈 The.Wind.2018.LiMiTED.1080p.BluRay.x264-CADAVER 6.56GB





◎译  名 诡风怪谈
◎片  名 The Wind
◎年  代 2018
◎产  地 美国
◎类  别 恐怖 / 西部
◎语  言 英语
◎上映日期 2018-09-10(多伦多电影节)
◎IMDb评分  5.5/10 from 3052 users
◎片  长 86分钟
◎导  演 Emma Tammi
◎编  剧 Teresa Sutherland
◎主  演 茱莉亚·古丹妮·泰勒斯 Julia Goldani Telles
       阿什利·祖克曼 Ashley Zukerman
       凯特琳·杰拉德 Caitlin Gerard
       迪伦·麦蒂 Dylan McTee


◎标  签 恐怖 | 惊悚 | 西部 | 美国 | 美国电影 | 2018 | 电影 | 美式恐怖

◎简  介  

  西部荒野,住着麦克林夫妇——伊萨克(阿什利·祖克曼 Ashley Zukerman 饰)和莉兹(凯特琳·杰拉德 Caitlin Gerard 饰)。这里条件艰苦,环境恶劣,人烟稀少,野兽横行。莫大的孤寂令莉兹时常警惕地环视四周,防备一切可能的危险。某天,哈普尔夫妇——吉迪恩(迪伦·麦蒂 Dylan McTee 饰)和艾玛(茱莉亚·古丹妮·泰勒斯 Julia Goldani Telles 饰)搬到了麦克林家附近,成为他们的邻居。两家人很快就成了好朋友,特别是莉兹有了艾玛这个好姐妹,似乎心理也正常了许多。
  好景不长,某晚艾玛的情况变得很糟糕,她担心神秘的存在将危及她的孩子。荒野大风卷起,乌云密布……
Video
ID                                       : 1
Format                                   : AVC
Format/Info                              : Advanced Video Codec
Format settings                          : CABAC / 5 Ref Frames
Format settings, CABAC                   : Yes
Format settings, Reference frames        : 5 frames
Codec ID                                 : V_MPEG4/ISO/AVC
Duration                                 : 1 h 28 min
Bit rate                                 : 9 142 kb/s
Width                                    : 1 920 pixels
Height                                   : 808 pixels
Display aspect ratio                     : 2.40:1
Frame rate mode                          : Constant
Frame rate                               : 23.976 (24000/1001) FPS
Color space                              : YUV
Chroma subsampling                       : 4:2:0
Bit depth                                : 8 bits
Scan type                                : Progressive
Bits/(Pixel*Frame)                       : 0.246
Stream size                              : 5.63 GiB (86%)
Writing library                          : x264 core 158 r2984 3759fcb
Encoding settings                        : cabac=1 / ref=5 / deblock=1:-3:-3 / analyse=0x3:0x133 / me=umh / subme=9 / psy=1 / psy_rd=1.00:0.00 / mixed_ref=1 / me_range=24 / chroma_me=1 / trellis=1 / 8x8dct=1 / cqm=0 / deadzone=21,11 / fast_pskip=0 / chroma_qp_offset=-2 / threads=24 / lookahead_threads=4 / sliced_threads=0 / nr=0 / decimate=1 / interlaced=0 / bluray_compat=0 / constrained_intra=0 / bframes=8 / b_pyramid=2 / b_adapt=2 / b_bias=0 / direct=3 / weightb=1 / open_gop=0 / weightp=2 / keyint=250 / keyint_min=23 / scenecut=40 / intra_refresh=0 / rc_lookahead=60 / rc=2pass / mbtree=1 / bitrate=9142 / ratetol=1.0 / qcomp=0.60 / qpmin=0 / qpmax=69 / qpstep=4 / cplxblur=20.0 / qblur=0.5 / vbv_maxrate=62500 / vbv_bufsize=78125 / nal_hrd=none / filler=0 / ip_ratio=1.40 / aq=1:1.00
Default                                  : Yes
Forced                                   : No

Audio
ID                                       : 2
Format                                   : DTS
Format/Info                              : Digital Theater Systems
Codec ID                                 : A_DTS
Duration                                 : 1 h 28 min
Bit rate mode                            : Constant
Bit rate                                 : 1 509 kb/s
Channel(s)                               : 6 channels
Channel layout                           : C L R Ls Rs LFE
Sampling rate                            : 48.0 kHz
Frame rate                               : 93.750 FPS (512 SPF)
Bit depth                                : 24 bits
Compression mode                         : Lossy
Stream size                              : 951 MiB (14%)
Language                                 : English
Default                                  : Yes
Forced                                   : No

Menu
00:00:00.000                             : en:Chapter 01
00:06:00.360                             : en:Chapter 02
00:14:10.349                             : en:Chapter 03
00:22:42.152                             : en:Chapter 04
00:29:47.995                             : en:Chapter 05
00:34:52.882                             : en:Chapter 06
00:39:32.078                             : en:Chapter 07
00:49:07.570                             : en:Chapter 08
00:55:58.605                             : en:Chapter 09
01:02:06.473                             : en:Chapter 10
01:09:50.019                             : en:Chapter 11
01:16:58.197                             : en:Chapter 12




                                                                                                                                                                                                        
                                                                                                                                                                                                                                                                                                                                                                                                                                                                                                                                                                                                                                                                                                                                                                                                                                                      
efccc58f1e0c07852848f953470ea83f.torrent (33.69 KB, 下载次数: 0)

回复

使用道具 举报

小黑屋|百度云资源论坛 ( 闽ICP备16005822号-1 )

本网站所有资源来自网络,如无意中侵犯了您的权益,请发邮件至 [email protected],立即清除相关链接

GMT+8, 2019-9-16 11:13 , Processed in 0.063380 second(s), 19 queries .

Powered by Discuz! X3.2

© 2001-2013 Comsenz Inc.

快速回复 返回顶部 返回列表