百度云资源论坛

 找回密码
 立即注册
搜索
热搜: 百度云资源
开启左侧

银魂2 Gintama.2.2018.1080p.BluRay.x264-REGRET 9.86GB

[复制链接]
百度云资源 发表于 2019-9-8 07:16:22 | 显示全部楼层 |阅读模式





帖子完整标题:银魂2 Gintama.2.2018.1080p.BluRay.x264-REGRET 9.86GB





◎译  名 银魂2 / Gintama 2 / 规定就是为了被打破而存在的 / 银魂2:规则是用来打破的
◎片  名 銀魂2 掟は破るためにこそある
◎年  代 2018
◎产  地 日本
◎类  别 喜剧 / 动作 / 冒险
◎语  言 日语
◎上映日期 2018-08-17(日本)
◎IMDb评分  6.6/10 from 506 users
◎导  演 福田雄一 Y?ichi Fukuda
◎编  剧 福田雄一 Y?ichi Fukuda
◎主  演 小栗旬 Shun Oguri
       菅田将晖 Masaki Suda
       桥本环奈 Kanna Hashimoto
       柳乐优弥 Y?ya Yagira
       吉泽亮 Yoshizawa Ryo
       三浦春马 Haruma Miura
       洼田正孝 Masataka Kubota
       室毅 Tsuyoshi Muro
       长泽雅美 Masami Nagasawa
       冈田将生 Masaki Okada
       木村绿子 Midoriko Kimura
       佐藤二朗 Jir? Sat?
       中村勘九郎 Kantarou Nakamura
       堂本刚 Tsuyoshi D?moto
       堤真一 Shin'ichi Tsutsumi
       胜地凉 Ryo Katsuji
       夏菜 Natsuna
       户塚纯贵 Junki Tozuka
       立木文彦 Fumihiko Tachiki


◎标  签 日本 | 银魂 | 漫画改编 | 喜剧 | 真人化 | 漫改 | 2018 | 搞笑

◎简  介  

  位于歌舞伎町一隅的万事屋,坂田银时(小栗旬 饰)、志村新八(菅田将晖 饰)和神乐(桥本环奈 饰)因为没钱交房租而焦头烂额,于是三人只得外出打工。他们先是去夜总会担任女招待,之后又临时充当理发师,可好死不死都碰上了微服出访的将军大人德川茂茂(胜地凉 饰),令他们战战兢兢,如履薄冰。另一方面,真选组土方十四郎(柳乐优弥 饰)遭伊东鸭太郎(三浦春马 饰)暗算,从刚硬坚毅的武士变成了柔弱怯懦的御宅族,最终被真选组扫地出门。在此之后,伊东联合鬼兵队,策划足以颠覆江户政府的大阴谋……
  本片根据空知英秋的超人气漫画改编改编,是同系列真人电影的第二部,此次的故事根据“将军接待篇”和“真选组动乱篇”改编。
Video
ID                                       : 1
Format                                   : AVC
Format/Info                              : Advanced Video Codec
Format settings                          : CABAC / 4 Ref Frames
Format settings, CABAC                   : Yes
Format settings, Reference frames        : 4 frames
Codec ID                                 : V_MPEG4/ISO/AVC
Duration                                 : 2 h 14 min
Bit rate                                 : 8 942 kb/s
Width                                    : 1 920 pixels
Height                                   : 1 080 pixels
Display aspect ratio                     : 16:9
Frame rate mode                          : Constant
Frame rate                               : 23.976 (24000/1001) FPS
Color space                              : YUV
Chroma subsampling                       : 4:2:0
Bit depth                                : 8 bits
Scan type                                : Progressive
Bits/(Pixel*Frame)                       : 0.180
Stream size                              : 8.41 GiB (86%)
Writing library                          : x264 core 157 r2970 5493be8
Encoding settings                        : cabac=1 / ref=4 / deblock=1:-3:-3 / analyse=0x3:0x133 / me=umh / subme=9 / psy=1 / psy_rd=1.00:0.00 / mixed_ref=1 / me_range=16 / chroma_me=1 / trellis=2 / 8x8dct=1 / cqm=0 / deadzone=21,11 / fast_pskip=0 / chroma_qp_offset=-2 / threads=24 / lookahead_threads=2 / sliced_threads=0 / nr=0 / decimate=1 / interlaced=0 / bluray_compat=0 / constrained_intra=0 / bframes=3 / b_pyramid=2 / b_adapt=1 / b_bias=0 / direct=3 / weightb=1 / open_gop=0 / weightp=2 / keyint=240 / keyint_min=24 / scenecut=40 / intra_refresh=0 / rc_lookahead=50 / rc=2pass / mbtree=1 / bitrate=8942 / ratetol=1.0 / qcomp=0.60 / qpmin=0 / qpmax=69 / qpstep=4 / cplxblur=20.0 / qblur=0.5 / ip_ratio=1.40 / aq=1:1.00
Language                                 : English
Default                                  : Yes
Forced                                   : No

Audio
ID                                       : 2
Format                                   : DTS
Format/Info                              : Digital Theater Systems
Codec ID                                 : A_DTS
Duration                                 : 2 h 14 min
Bit rate mode                            : Constant
Bit rate                                 : 1 509 kb/s
Channel(s)                               : 6 channels
Channel layout                           : C L R Ls Rs LFE
Sampling rate                            : 48.0 kHz
Frame rate                               : 93.750 FPS (512 SPF)
Bit depth                                : 24 bits
Compression mode                         : Lossy
Stream size                              : 1.42 GiB (14%)
Language                                 : Japanese
Default                                  : Yes
Forced                                   : No

Text
ID                                       : 3
Format                                   : UTF-8
Codec ID                                 : S_TEXT/UTF8
Codec ID/Info                            : UTF-8 Plain Text
Duration                                 : 2 h 14 min
Bit rate                                 : 54 b/s
Count of elements                        : 1784
Stream size                              : 53.6 KiB (0%)
Title                                    : English
Language                                 : English
Default                                  : Yes
Forced                                   : Yes

Menu
00:00:00.000                             : en:00:00:00.000
00:11:22.891                             : en:00:11:22.891
00:22:44.029                             : en:00:22:44.029
00:33:22.500                             : en:00:33:22.500
00:43:59.011                             : en:00:43:59.011
00:56:43.567                             : en:00:56:43.567
01:06:33.406                             : en:01:06:33.406
01:20:01.463                             : en:01:20:01.463
01:29:41.751                             : en:01:29:41.751
01:41:03.808                             : en:01:41:03.808
01:54:05.505                             : en:01:54:05.505
02:05:08.960                             : en:02:05:08.960




                                                                                                                                                                                                        
                                                                                                                                                                                                                                                                                                                                                                                                                                                                                                                                                                                                                                                                                                                                                                                                                                                      
0c69b9f49b000ba373ad8fc44d3b2253.torrent (50.04 KB, 下载次数: 0)

回复

使用道具 举报

小黑屋|百度云资源论坛 ( 闽ICP备16005822号-1 )

本网站所有资源来自网络,如无意中侵犯了您的权益,请发邮件至 [email protected],立即清除相关链接

GMT+8, 2019-9-20 03:58 , Processed in 0.087551 second(s), 19 queries .

Powered by Discuz! X3.2

© 2001-2013 Comsenz Inc.

快速回复 返回顶部 返回列表