百度云资源论坛

 找回密码
 立即注册
搜索
热搜: 百度云资源
开启左侧

奇异恩典/Aretha Franklin: 騷靈恩典(港) Amazing.Grace.2018.LiMiTE...

[复制链接]
百度云电影 发表于 2019-9-8 07:16:27 | 显示全部楼层 |阅读模式




帖子完整标题:奇异恩典/Aretha Franklin: 騷靈恩典(港) Amazing.Grace.2018.LiMiTED.1080p.BluRay.x264-CADAVER 6.57GB





◎译  名 奇异恩典 / Aretha Franklin: 騷靈恩典(港)
◎片  名 Amazing Grace
◎年  代 2018
◎产  地 美国
◎类  别 纪录片
◎语  言 英语
◎上映日期 2018-11-12(纽约纪录片展)
◎IMDb评分  7.7/10 from 1287 users
◎片  长 89分钟
◎导  演 西德尼·波拉克 Sydney Pollack
◎主  演 艾瑞莎·弗兰克林 Aretha Franklin
       米克·贾格尔 Mick Jagger
       西德尼·波拉克 Sydney Pollack
       查理·沃茨 Charlie Watts


◎标  签 纪录片 | 音乐 | 美国 | 2018 | ArethaFranklin | 纪录 | 电影 | SIFF

◎简  介  

  记述“灵魂歌后”艾瑞莎·弗兰克林音乐会的纪录片[奇异恩典](Amazing Grace,暂译)终于问世,该片北美定档颁奖季,将率先在纽约、洛杉矶小范围上映,同时影片也将成为明年奥斯卡最佳纪录长片的有力争夺者。
  1972年,艾瑞莎·弗兰克林推出专辑《奇异恩典》,导演西德尼·波拉克根据艾瑞莎·弗兰克林在洛杉矶举行的两场音乐会拍摄了同名纪录片,但影片因音效问题一直延映,制片艾伦·艾利奥特最终完成了影片的制作。2015年,该片曾一度计划亮相特柳赖德电影节、多伦多电影节,但因版权问题上映被叫停。艾瑞莎·弗兰克林于今年8月去世。

◎获奖情况  

  第53届美国国家影评人协会奖(2019)
  最佳纪录片(提名)
Video
ID                                       : 1
Format                                   : AVC
Format/Info                              : Advanced Video Codec
Format settings                          : CABAC / 4 Ref Frames
Format settings, CABAC                   : Yes
Format settings, Reference frames        : 4 frames
Codec ID                                 : V_MPEG4/ISO/AVC
Duration                                 : 1 h 29 min
Bit rate                                 : 8 998 kb/s
Width                                    : 1 920 pixels
Height                                   : 1 080 pixels
Display aspect ratio                     : 16:9
Frame rate mode                          : Constant
Frame rate                               : 23.976 (24000/1001) FPS
Color space                              : YUV
Chroma subsampling                       : 4:2:0
Bit depth                                : 8 bits
Scan type                                : Progressive
Bits/(Pixel*Frame)                       : 0.181
Stream size                              : 5.61 GiB (86%)
Writing library                          : x264 core 158 r2984 3759fcb
Encoding settings                        : cabac=1 / ref=4 / deblock=1:-3:-3 / analyse=0x3:0x133 / me=umh / subme=9 / psy=1 / psy_rd=1.00:0.00 / mixed_ref=1 / me_range=24 / chroma_me=1 / trellis=1 / 8x8dct=1 / cqm=0 / deadzone=21,11 / fast_pskip=0 / chroma_qp_offset=-2 / threads=24 / lookahead_threads=4 / sliced_threads=0 / nr=0 / decimate=1 / interlaced=0 / bluray_compat=0 / constrained_intra=0 / bframes=8 / b_pyramid=2 / b_adapt=2 / b_bias=0 / direct=3 / weightb=1 / open_gop=0 / weightp=2 / keyint=250 / keyint_min=23 / scenecut=40 / intra_refresh=0 / rc_lookahead=60 / rc=2pass / mbtree=1 / bitrate=8998 / ratetol=1.0 / qcomp=0.60 / qpmin=0 / qpmax=69 / qpstep=4 / cplxblur=20.0 / qblur=0.5 / vbv_maxrate=62500 / vbv_bufsize=78125 / nal_hrd=none / filler=0 / ip_ratio=1.40 / aq=1:1.00
Default                                  : Yes
Forced                                   : No

Audio
ID                                       : 2
Format                                   : DTS
Format/Info                              : Digital Theater Systems
Codec ID                                 : A_DTS
Duration                                 : 1 h 29 min
Bit rate mode                            : Constant
Bit rate                                 : 1 509 kb/s
Channel(s)                               : 6 channels
Channel layout                           : C L R Ls Rs LFE
Sampling rate                            : 48.0 kHz
Frame rate                               : 93.750 FPS (512 SPF)
Bit depth                                : 24 bits
Compression mode                         : Lossy
Stream size                              : 964 MiB (14%)
Language                                 : English
Default                                  : Yes
Forced                                   : No

Menu
00:00:00.000                             : en:Chapter 01
00:06:22.882                             : en:Chapter 02
00:10:07.607                             : en:Chapter 03
00:15:50.283                             : en:Chapter 04
00:20:45.578                             : en:Chapter 05
00:24:10.240                             : en:Chapter 06
00:32:10.720                             : en:Chapter 07
00:40:02.734                             : en:Chapter 08
00:52:34.401                             : en:Chapter 09
01:00:31.586                             : en:Chapter 10
01:07:25.416                             : en:Chapter 11
01:15:23.769                             : en:Chapter 12




                                                                                                                                                                                                        
                                                                                                                                                                                                                                                                                                                                                                                                                                                                                                                                                                                                                                                                                                                                                                                                                                                      
91b495a5c5d208c4a98789da5ec11ca8.torrent (33.76 KB, 下载次数: 0)

回复

使用道具 举报

小黑屋|百度云资源论坛 ( 闽ICP备16005822号-1 )

本网站所有资源来自网络,如无意中侵犯了您的权益,请发邮件至 [email protected],立即清除相关链接

GMT+8, 2019-9-20 03:55 , Processed in 0.075727 second(s), 19 queries .

Powered by Discuz! X3.2

© 2001-2013 Comsenz Inc.

快速回复 返回顶部 返回列表