百度云资源论坛

 找回密码
 立即注册
搜索
热搜: 百度云资源
开启左侧

十年日本 Ten.Years.Japan.2018.JAPANESE.1080p.BluRay.X264-WiKi 8.87GB

[复制链接]
百度云资源 发表于 2019-9-8 07:16:28 | 显示全部楼层 |阅读模式





帖子完整标题:十年日本 Ten.Years.Japan.2018.JAPANESE.1080p.BluRay.X264-WiKi 8.87GB





◎译  名 Ten Years Japan
◎片  名 十年日本
◎年  代 2018
◎产  地 日本
◎类  别 剧情
◎语  言 日语
◎上映日期 2018-11-03(日本)
◎IMDb评分  4.5/10 from 119 users◎片  长 99分钟
◎导  演 石川庆 Kei Ishikawa / 早川千绘 Chie Hayakawa / 木下雄介 / 津野爱 / 藤村明世
◎主  演 杉咲花 Hana Sugisaki
       太贺 Taiga
       川口觉 Satoru Kawaguchi
       池胁千鹤 Chizuru Ikewaki
       国村隼 Jun Kunimura


◎标  签 日本 | 是枝裕和 | 日本电影 | 短片集 | 日影 | 社会 | 2018 | 2019

◎简  介  

  「十年电影工作室」指出,是枝裕和跟高松美由纪、水野咏子、Jason Gray 和福间美由纪这几位制作人合作,挑选了五名日本导演执导新片,他们分别是石川庆、木下雄介、津野爱、早川千絵和藤村明世。
  《十年日本》将会描写未来的日本,污染令人窒息,同时又深受人口老化困扰,科技依然日新月异,却不再受人控制,把玩弄人的道德和个人历史,颠覆人性,战争幽灵亦步亦趋,日本只见一片迷蒙。
Video
ID                                       : 1
Format                                   : AVC
Format/Info                              : Advanced Video Codec
Format settings                          : CABAC / 4 Ref Frames
Format settings, CABAC                   : Yes
Format settings, Reference frames        : 4 frames
Codec ID                                 : V_MPEG4/ISO/AVC
Duration                                 : 1 h 38 min
Bit rate                                 : 12.2 Mb/s
Width                                    : 1 920 pixels
Height                                   : 1 038 pixels
Display aspect ratio                     : 1.85:1
Frame rate mode                          : Constant
Frame rate                               : 23.976 (24000/1001) FPS
Color space                              : YUV
Chroma subsampling                       : 4:2:0
Bit depth                                : 8 bits
Scan type                                : Progressive
Bits/(Pixel*Frame)                       : 0.255
Stream size                              : 8.42 GiB (95%)
Writing library                          : x264 core 157 r2867+103 0d6443f t_mod_Custom_2 [1 X86_64]
Encoding settings                        : cabac=1 / ref=4 / deblock=1:-3:-3 / analyse=0x3:0x133 / me=umh / subme=10 / psy=1 / fade_compensate=0.00 / psy_rd=1.00:0.00 / mixed_ref=1 / me_range=32 / chroma_me=1 / trellis=2 / 8x8dct=1 / cqm=0 / deadzone=21,11 / fast_pskip=0 / chroma_qp_offset=-2 / threads=24 / lookahead_threads=4 / sliced_threads=0 / nr=0 / decimate=0 / interlaced=0 / bluray_compat=0 / constrained_intra=0 / fgo=0 / bframes=7 / b_pyramid=2 / b_adapt=2 / b_bias=0 / direct=3 / weightb=1 / open_gop=0 / weightp=2 / keyint=250 / keyint_min=23 / scenecut=40 / intra_refresh=0 / rc_lookahead=60 / rc=crf / mbtree=0 / crf=16.7000 / qcomp=0.65 / qpmin=0:0:0 / qpmax=69:69:69 / qpstep=4 / vbv_maxrate=62500 / vbv_bufsize=78125 / crf_max=0.0 / nal_hrd=none / filler=0 / ip_ratio=1.30 / pb_ratio=1.20 / aq=3:0.80 / aq-sensitivity=10.00 / aq-factor=1.00:1.00:1.00 / aq2=0 / aq3=0
Language                                 : English
Default                                  : Yes
Forced                                   : No

Audio
ID                                       : 2
Format                                   : AC-3
Format/Info                              : Audio Coding 3
Commercial name                          : Dolby Digital
Codec ID                                 : A_AC3
Duration                                 : 1 h 38 min
Bit rate mode                            : Constant
Bit rate                                 : 640 kb/s
Channel(s)                               : 6 channels
Channel layout                           : L R C LFE Ls Rs
Sampling rate                            : 48.0 kHz
Frame rate                               : 31.250 FPS (1536 SPF)
Bit depth                                : 16 bits
Compression mode                         : Lossy
Stream size                              : 453 MiB (5%)
Language                                 : Japanese
Service kind                             : Complete Main
Default                                  : Yes
Forced                                   : No

Text #1
ID                                       : 3
Format                                   : UTF-8
Codec ID                                 : S_TEXT/UTF8
Codec ID/Info                            : UTF-8 Plain Text
Duration                                 : 1 h 33 min
Bit rate                                 : 22 b/s
Count of elements                        : 647
Stream size                              : 15.5 KiB (0%)
Title                                    : CHS
Language                                 : Chinese
Default                                  : No
Forced                                   : No

Text #2
ID                                       : 4
Format                                   : UTF-8
Codec ID                                 : S_TEXT/UTF8
Codec ID/Info                            : UTF-8 Plain Text
Duration                                 : 1 h 33 min
Bit rate                                 : 22 b/s
Count of elements                        : 647
Stream size                              : 15.5 KiB (0%)
Title                                    : CHT
Language                                 : Chinese
Default                                  : No
Forced                                   : No

Text #3
ID                                       : 5
Format                                   : UTF-8
Codec ID                                 : S_TEXT/UTF8
Codec ID/Info                            : UTF-8 Plain Text
Duration                                 : 1 h 33 min
Bit rate                                 : 25 b/s
Count of elements                        : 650
Stream size                              : 17.5 KiB (0%)
Language                                 : English
Default                                  : No
Forced                                   : No

Menu
00:00:00.000                             : en:00:00:00.000
00:12:50.061                             : en:00:12:50.061
00:18:35.906                             : en:00:18:35.906
00:26:21.163                             : en:00:26:21.163
00:38:15.668                             : en:00:38:15.668
00:46:29.120                             : en:00:46:29.120
00:57:12.429                             : en:00:57:12.429
01:05:52.740                             : en:01:05:52.740
01:12:30.763                             : en:01:12:30.763
01:16:21.202                             : en:01:16:21.202
01:25:40.427                             : en:01:25:40.427
01:34:53.855                             : en:01:34:53.855




                                                                                                                                                                                                        
                                                                                                                                                                                                                                                                                                                                                                                                                                                                                                                                                                                                                                                                                                                                                                                                                                                      
c62a8df9be9eb285b160348a71ed89b6.torrent (44.85 KB, 下载次数: 0)

回复

使用道具 举报

小黑屋|百度云资源论坛 ( 闽ICP备16005822号-1 )

本网站所有资源来自网络,如无意中侵犯了您的权益,请发邮件至 [email protected],立即清除相关链接

GMT+8, 2019-9-20 03:57 , Processed in 0.083351 second(s), 19 queries .

Powered by Discuz! X3.2

© 2001-2013 Comsenz Inc.

快速回复 返回顶部 返回列表