百度云资源论坛

 找回密码
 立即注册
搜索
热搜: 百度云资源
开启左侧

乔·科克尔:灵魂疯狗 Joe.Cocker.Mad.Dog.With.Soul.2017.DOCU.1080p.BluRa... ...

[复制链接]
百度云资源 发表于 2019-9-8 07:16:29 | 显示全部楼层 |阅读模式




帖子完整标题:乔·科克尔:灵魂疯狗 Joe.Cocker.Mad.Dog.With.Soul.2017.DOCU.1080p.BluRay.x264-TREBLE 6.55GB





◎译  名 乔·科克尔:灵魂疯狗
◎片  名 Joe Cocker: Mad Dog with Soul
◎年  代 2017
◎产  地 英国
◎类  别 纪录片
◎语  言 英语
◎上映日期 2017-04-01
◎IMDb评分  7.2/10 from 627 users
◎片  长 90分钟
◎导  演 John Edginton
◎编  剧 John Edginton
◎主  演 Joe Cocker
       Pam Cocker
       Vic Cocker


◎标  签 纪录片 | 紀錄片 | Netflix

◎简  介  

  The turbulent life of soul and blues singer, the late Joe Cocker. A former gas fitter from Sheffield , catapulted to world stardom in 1969 at Woodstock with his legendary performance of the Beatles song,"A Little Help from My Friends". But in the early 1970s, Joe Cocker's inner demons nearly killed him. Overcoming his struggles with alcohol and drugs, he rebuilt his reputation as "one of the great primal rock and roll vocalists of all time" (Billy Joel's description). The film mixes Joe Cocker's own words, with rare archive. His family, friends and the legendary songwriters and musicians he collaborated with, tell Joe Cocker's story. The film has raw, electric performance footage throughout.
Video
ID                                       : 1
Format                                   : AVC
Format/Info                              : Advanced Video Codec
Format settings, CABAC                   : Yes
Format settings, ReFrames                : 4 frames
Codec ID                                 : V_MPEG4/ISO/AVC
Duration                                 : 1 h 30 min
Bit rate                                 : 9 650 kb/s
Width                                    : 1 920 pixels
Height                                   : 1 080 pixels
Display aspect ratio                     : 16:9
Frame rate mode                          : Constant
Frame rate                               : 23.976 (24000/1001) FPS
Color space                              : YUV
Chroma subsampling                       : 4:2:0
Bit depth                                : 8 bits
Scan type                                : Progressive
Bits/(Pixel*Frame)                       : 0.194
Stream size                              : 6.07 GiB (93%)
Title                                    : English
Writing library                          : x264 core 152 r2851 ba24899
Encoding settings                        : cabac=1 / ref=4 / deblock=1:0:0 / analyse=0x3:0x113 / me=umh / subme=8 / psy=1 / psy_rd=1.00:0.00 / mixed_ref=1 / me_range=16 / chroma_me=1 / trellis=1 / 8x8dct=1 / cqm=0 / deadzone=21,11 / fast_pskip=1 / chroma_qp_offset=-2 / threads=12 / lookahead_threads=2 / sliced_threads=0 / nr=0 / decimate=1 / interlaced=0 / bluray_compat=0 / constrained_intra=0 / bframes=3 / b_pyramid=2 / b_adapt=1 / b_bias=0 / direct=3 / weightb=1 / open_gop=0 / weightp=2 / keyint=240 / keyint_min=24 / scenecut=40 / intra_refresh=0 / rc_lookahead=50 / rc=2pass / mbtree=1 / bitrate=9650 / ratetol=1.0 / qcomp=0.60 / qpmin=0 / qpmax=69 / qpstep=4 / cplxblur=20.0 / qblur=0.5 / ip_ratio=1.40 / aq=1:1.00
Language                                 : English
Default                                  : Yes
Forced                                   : No

Audio
ID                                       : 2
Format                                   : DTS
Format/Info                              : Digital Theater Systems
Mode                                     : 16
Format settings, Endianness              : Big
Codec ID                                 : A_DTS
Duration                                 : 1 h 30 min
Bit rate mode                            : Constant
Bit rate                                 : 768 kb/s
Channel(s)                               : 6 channels
Channel positions                        : Front: L C R, Side: L R, LFE
Sampling rate                            : 48.0 kHz
Frame rate                               : 93.750 FPS (512 spf)
Bit depth                                : 24 bits
Compression mode                         : Lossy
Stream size                              : 495 MiB (7%)
Title                                    : English
Language                                 : English
Default                                  : Yes
Forced                                   : No

Menu
00:00:00.000                             : en:00:00:00.000
00:01:25.085                             : en:00:01:25.085
00:06:40.233                             : en:00:06:40.233
00:13:06.786                             : en:00:13:06.786
00:19:03.726                             : en:00:19:03.726
00:32:45.088                             : en:00:32:45.088
00:38:05.992                             : en:00:38:05.992
00:43:18.429                             : en:00:43:18.429
00:51:01.976                             : en:00:51:01.976
00:56:52.326                             : en:00:56:52.326
01:05:41.229                             : en:01:05:41.229
01:23:07.191                             : en:01:23:07.191
01:28:48.281                             : en:01:28:48.281




                                                                                                                                                                                                        
                                                                                                                                                                                                                                                                                                                                                                                                                                                                                                                                                                                                                                                                                                                                                                                                                                                      
0e303ffa716a2888d06ae7a94caeb438.torrent (66.06 KB, 下载次数: 0)

回复

使用道具 举报

小黑屋|百度云资源论坛 ( 闽ICP备16005822号-1 )

本网站所有资源来自网络,如无意中侵犯了您的权益,请发邮件至 [email protected],立即清除相关链接

GMT+8, 2019-9-16 11:12 , Processed in 0.179127 second(s), 19 queries .

Powered by Discuz! X3.2

© 2001-2013 Comsenz Inc.

快速回复 返回顶部 返回列表