百度云资源论坛

 找回密码
 立即注册
搜索
热搜: 百度云资源
开启左侧

脑中蜜 Head.Full.of.Honey.2018.DUBBED.1080p.BluRay.x264-PussyFoot 9.84GB

[复制链接]
百度云资源 发表于 2019-9-8 07:16:31 | 显示全部楼层 |阅读模式




帖子完整标题:脑中蜜 Head.Full.of.Honey.2018.DUBBED.1080p.BluRay.x264-PussyFoot 9.84GB





◎译  名 脑中蜜 / Honey in the Head
◎片  名 Head Full of Honey
◎年  代 2018
◎产  地 德国 / 美国
◎类  别 剧情
◎语  言 英语
◎上映日期 2018-11-30(纽约/洛杉矶点映)
◎IMDb评分  3.1/10 from 526 users
◎片  长 139分钟
◎导  演 蒂尔·施威格 Til Schweiger
◎编  剧 蒂尔·施威格 Til Schweiger / 乔乔·莫伊斯 Jojo Moyes
◎主  演 尼克·诺特 Nick Nolte
       马特·狄龙 Matt Dillon
       艾米莉·莫迪默 Emily Mortimer
       杰奎琳·比塞特 Jacqueline Bisset
       埃里克·罗伯茨 Eric Roberts
       克莱尔·弗兰妮 Claire Forlani
       蒂尔·施威格 Til Schweiger
       科斯塔·罗宁 Costa Ronin
       麦斯米兰·贝佛特 Maximilian Befort
       阿利斯泰尔·布拉默 Alistair Brammer
       蒂姆·维尔德 Tim Wilde
       Murali Perumal


◎标  签 德国 | 老年 | 美国 | 家庭 | 剧情 | 喜剧 | 2018 | 烂片

◎简  介  

  华纳确定尼克·诺特、马特·狄龙出演的美版[脑中蜜]定档颁奖季,将于下月30日在纽约、洛杉矶小范围开画。2014年德国影片[脑中蜜]由蒂尔·施威格自编自导自演,美版依旧由施威格执导,编剧乔乔·莫伊斯([遇见你之前]),卡司包括埃里克·罗伯茨、艾米莉·莫迪默、克莱尔·弗兰妮、杰奎琳·比塞特。故事围绕一个身患阿尔茨海默病症的老人带着孙女前往威尼斯展开。
Video
ID                                       : 1
Format                                   : AVC
Format/Info                              : Advanced Video Cod
Format settings                          : CABAC / 5 Ref Frames
Format settings, CABAC                   : Yes
Format settings, Reference frames        : 5 frames
Codec ID                                 : V_MPEG4/ISO/AVC
Duration                                 : 2 h 11 min
Bit rate                                 : 9 170 kb/s
Width                                    : 1 920 pixels
Height                                   : 808 pixels
Display aspect ratio                     : 2.40:1
Frame rate mode                          : Constant
Frame rate                               : 23.976 (24000/1001) FPS
Color space                              : YUV
Chroma subsampling                       : 4:2:0
Bit depth                                : 8 bits
Scan type                                : Progressive
Bits/(Pixel*Frame)                       : 0.247
Stream size                              : 8.25 GiB (84%)
Writing library                          : x264 core 157 r2969 d4099dd
Encoding settings                        : cabac=1 / ref=5 / deblock=1:-2:-2 / analyse=0x3:0x113 / me=umh / subme=8 / psy=1 / psy_rd=1.00:0.00 / mixed_ref=1 / me_range=16 / chroma_me=1 / trellis=2 / 8x8dct=1 / cqm=0 / deadzone=21,11 / fast_pskip=1 / chroma_qp_offset=-2 / threads=25 / lookahead_threads=4 / sliced_threads=0 / nr=0 / decimate=1 / interlaced=0 / bluray_compat=0 / constrained_intra=0 / bframes=3 / b_pyramid=2 / b_adapt=2 / b_bias=0 / direct=3 / weightb=1 / open_gop=0 / weightp=2 / keyint=240 / keyint_min=24 / scenecut=40 / intra_refresh=0 / rc_lookahead=50 / rc=2pass / mbtree=1 / bitrate=9170 / ratetol=1.0 / qcomp=0.60 / qpmin=0 / qpmax=69 / qpstep=4 / cplxblur=20.0 / qblur=0.5 / ip_ratio=1.40 / aq=1:1.00
Language                                 : English
Default                                  : Yes
Forced                                   : No

Audio
ID                                       : 2
Format                                   : DTS
Format/Info                              : Digital Theater Systems
Codec ID                                 : A_DTS
Duration                                 : 2 h 11 min
Bit rate mode                            : Constant
Bit rate                                 : 1 509 kb/s
Channel(s)                               : 6 channels
Channel layout                           : C L R Ls Rs LFE
Sampling rate                            : 48.0 kHz
Frame rate                               : 93.750 FPS (512 SPF)
Bit depth                                : 24 bits
Compression mode                         : Lossy
Stream size                              : 1.39 GiB (14%)
Language                                 : English
Default                                  : Yes
Forced                                   : No

Menu
00:00:00.000                             : en:00:00:00.000
00:08:39.978                             : en:00:08:39.978
00:17:41.978                             : en:00:17:41.978
00:29:21.093                             : en:00:29:21.093
00:36:42.367                             : en:00:36:42.367
00:51:57.990                             : en:00:51:57.990
01:01:18.633                             : en:01:01:18.633
01:11:59.524                             : en:01:11:59.524
01:23:10.819                             : en:01:23:10.819
01:37:06.779                             : en:01:37:06.779
01:47:00.956                             : en:01:47:00.956
01:56:36.448                             : en:01:56:36.448




                                                                                                                                                                                                        
                                                                                                                                                                                                                                                                                                                                                                                                                                                                                                                                                                                                                                                                                                                                                                                                                                                      
a5a8429c1ea8b1a1129c73ffb8535533.torrent (49.96 KB, 下载次数: 0)

回复

使用道具 举报

小黑屋|百度云资源论坛 ( 闽ICP备16005822号-1 )

本网站所有资源来自网络,如无意中侵犯了您的权益,请发邮件至 [email protected],立即清除相关链接

GMT+8, 2019-9-16 11:13 , Processed in 0.058981 second(s), 19 queries .

Powered by Discuz! X3.2

© 2001-2013 Comsenz Inc.

快速回复 返回顶部 返回列表