百度云资源论坛

 找回密码
 立即注册
搜索
热搜: 百度云资源
开启左侧

原野神驹/游侠西征 Wagon.Master.1950.720p.BluRay.x264-CiNEFiLE 4.38GB

[复制链接]




帖子完整标题:原野神驹/游侠西征 Wagon.Master.1950.720p.BluRay.x264-CiNEFiLE 4.38GB





◎译  名 原野神驹 / 游侠西征 / 蓬车大侠
◎片  名 Wagon Master
◎年  代 1950
◎产  地 美国
◎类  别 剧情 / 动作 / 爱情 / 西部 / 冒险
◎语  言 英语 / Navajo
◎上映日期 1950-04-19
◎IMDb评分  7.1/10 from 3752 users
◎片  长 86 分钟
◎导  演 约翰·福特 John Ford
◎编  剧 Frank S. Nugent / 约翰·福特 John Ford / Patrick Ford
◎主  演 Ben Johnson
       乔安妮·德鲁 Joanne Dru
       小哈里·凯瑞 Harry Carey Jr.


◎标  签 西部片 | 约翰·福特 | 美国 | 西部 | 1950 | John_Ford | JohnFord | 美国电影

◎简  介  

  暂无相关剧情介绍
Video
ID                                       : 1
Format                                   : AVC
Format/Info                              : Advanced Video Codec
Format settings                          : CABAC / 9 Ref Frames
Format settings, CABAC                   : Yes
Format settings, Reference frames        : 9 frames
Codec ID                                 : V_MPEG4/ISO/AVC
Duration                                 : 1 h 25 min
Bit rate                                 : 5 798 kb/s
Width                                    : 992 pixels
Height                                   : 720 pixels
Display aspect ratio                     : 1.378
Frame rate mode                          : Constant
Frame rate                               : 23.976 (24000/1001) FPS
Color space                              : YUV
Chroma subsampling                       : 4:2:0
Bit depth                                : 8 bits
Scan type                                : Progressive
Bits/(Pixel*Frame)                       : 0.339
Stream size                              : 3.47 GiB (79%)
Writing library                          : x264 core 158 r2984 3759fcb
Encoding settings                        : cabac=1 / ref=9 / deblock=1:-3:-3 / analyse=0x3:0x113 / me=umh / subme=8 / psy=1 / psy_rd=1.00:0.00 / mixed_ref=1 / me_range=16 / chroma_me=1 / trellis=1 / 8x8dct=1 / cqm=0 / deadzone=21,11 / fast_pskip=0 / chroma_qp_offset=-2 / threads=22 / lookahead_threads=3 / sliced_threads=0 / nr=0 / decimate=1 / interlaced=0 / bluray_compat=0 / constrained_intra=0 / bframes=3 / b_pyramid=2 / b_adapt=1 / b_bias=0 / direct=1 / weightb=1 / open_gop=0 / weightp=2 / keyint=250 / keyint_min=23 / scenecut=40 / intra_refresh=0 / rc_lookahead=40 / rc=2pass / mbtree=1 / bitrate=5798 / ratetol=1.0 / qcomp=0.60 / qpmin=0 / qpmax=69 / qpstep=4 / cplxblur=20.0 / qblur=0.5 / ip_ratio=1.40 / aq=1:1.00
Language                                 : English
Default                                  : Yes
Forced                                   : No

Audio
ID                                       : 2
Format                                   : DTS
Format/Info                              : Digital Theater Systems
Codec ID                                 : A_DTS
Duration                                 : 1 h 25 min
Bit rate mode                            : Constant
Bit rate                                 : 1 509 kb/s
Channel(s)                               : 2 channels
Channel layout                           : L R
Sampling rate                            : 48.0 kHz
Frame rate                               : 93.750 FPS (512 SPF)
Bit depth                                : 24 bits
Compression mode                         : Lossy
Stream size                              : 924 MiB (21%)
Language                                 : English
Default                                  : Yes
Forced                                   : No

Text #1
ID                                       : 3
Format                                   : UTF-8
Codec ID                                 : S_TEXT/UTF8
Codec ID/Info                            : UTF-8 Plain Text
Duration                                 : 1 h 24 min
Bit rate                                 : 52 b/s
Count of elements                        : 1143
Stream size                              : 32.9 KiB (0%)
Language                                 : English
Default                                  : No
Forced                                   : No

Text #2
ID                                       : 4
Format                                   : UTF-8
Codec ID                                 : S_TEXT/UTF8
Codec ID/Info                            : UTF-8 Plain Text
Duration                                 : 1 h 24 min
Bit rate                                 : 53 b/s
Count of elements                        : 1185
Stream size                              : 33.5 KiB (0%)
Title                                    : SDH
Language                                 : English
Default                                  : No
Forced                                   : No

Menu
00:00:00.000                             : en:00:00:00.000
00:02:59.179                             : en:00:02:59.179
00:06:11.788                             : en:00:06:11.788
00:11:35.361                             : en:00:11:35.361
00:17:49.068                             : en:00:17:49.068
00:24:17.456                             : en:00:24:17.456
00:29:38.527                             : en:00:29:38.527
00:35:05.353                             : en:00:35:05.353
00:38:46.407                             : en:00:38:46.407
00:42:43.352                             : en:00:42:43.352
00:45:55.419                             : en:00:45:55.419
00:50:07.630                             : en:00:50:07.630
00:54:53.749                             : en:00:54:53.749
00:59:18.638                             : en:00:59:18.638
01:02:43.718                             : en:01:02:43.718
01:07:29.879                             : en:01:07:29.879
01:12:25.216                             : en:01:12:25.216
01:16:06.687                             : en:01:16:06.687
01:20:23.360                             : en:01:20:23.360
01:22:51.133                             : en:01:22:51.133
01:25:05.434                             : en:01:25:05.434




                                                                                                                                                                                                        
                                                                                                                                                                                                                                                                                                                                                                                                                                                                                                                                                                                                                                                                                                                                                                                                                                                      
61f07267e393517e949f150d99d63400.torrent (44.55 KB, 下载次数: 0)

回复

使用道具 举报

小黑屋|百度云资源论坛 ( 闽ICP备16005822号-1 )

本网站所有资源来自网络,如无意中侵犯了您的权益,请发邮件至 [email protected],立即清除相关链接

GMT+8, 2019-9-16 11:12 , Processed in 0.060266 second(s), 19 queries .

Powered by Discuz! X3.2

© 2001-2013 Comsenz Inc.

快速回复 返回顶部 返回列表