百度云资源论坛

 找回密码
 立即注册
搜索
热搜: 百度云资源
开启左侧

慕理小镇/魔窟枭雄 Moonfleet.1955.720p.BluRay.x264-CiNEFiLE 4.38GB

[复制链接]
百度云电影 发表于 2019-9-10 07:54:38 | 显示全部楼层 |阅读模式




帖子完整标题:慕理小镇/魔窟枭雄 Moonfleet.1955.720p.BluRay.x264-CiNEFiLE 4.38GB





◎译  名 慕理小镇 / 魔窟枭雄(港)
◎片  名 Moonfleet
◎年  代 1955
◎产  地 美国
◎类  别 剧情 / 冒险
◎语  言 英语
◎上映日期 1955-06-24
◎IMDb评分  6.7/10 from 2960 users
◎片  长 USA: 87 分钟
◎导  演 Fritz Lang
◎编  剧 Jan Lustig / Margaret Fitts / J. Meade Falkner
◎主  演 Stewart Granger
       George Sanders
       Joan Greenwood


◎标  签 美国 | 弗里茨·朗 | Fritz_Lang | 美国电影 | FritzLang | 1950s | 剧情 | 1955

◎简  介  

  德国大导演弗里茨.兰在五十年代赴美拍摄的冒险动作片,时代背景是十八世纪中业。史都华.格兰杰饰演一名放荡不羁的海盗,却成为一名小男孩的监护人,他不想麻烦,就送小孩去读书,但后来发现他是一颗传说中着名钻石的继承人,便兴高彩烈地陪同小孤儿出发去找寻宝石,并准备将它据为己有。但是在旅途中,小孩对母亲的回忆慢慢打动了海盗,最后使他良心发现,把钻石物归原主。这部娱乐片虽然跟弗里茨.兰在战前拍摄的一些经典作不能相比,但仍然拍得相当热闹流畅,男主角尤其演得出色。
Video
ID                                       : 1
Format                                   : AVC
Format/Info                              : Advanced Video Codec
Format settings                          : CABAC / 9 Ref Frames
Format settings, CABAC                   : Yes
Format settings, Reference frames        : 9 frames
Codec ID                                 : V_MPEG4/ISO/AVC
Duration                                 : 1 h 26 min
Bit rate                                 : 5 696 kb/s
Width                                    : 1 280 pixels
Height                                   : 504 pixels
Display aspect ratio                     : 2.540
Frame rate mode                          : Constant
Frame rate                               : 23.976 (24000/1001) FPS
Color space                              : YUV
Chroma subsampling                       : 4:2:0
Bit depth                                : 8 bits
Scan type                                : Progressive
Bits/(Pixel*Frame)                       : 0.368
Stream size                              : 3.45 GiB (79%)
Writing library                          : x264 core 158 r2984 3759fcb
Encoding settings                        : cabac=1 / ref=9 / deblock=1:-3:-3 / analyse=0x3:0x113 / me=umh / subme=8 / psy=1 / psy_rd=1.00:0.00 / mixed_ref=1 / me_range=16 / chroma_me=1 / trellis=1 / 8x8dct=1 / cqm=0 / deadzone=21,11 / fast_pskip=0 / chroma_qp_offset=-2 / threads=16 / lookahead_threads=2 / sliced_threads=0 / nr=0 / decimate=1 / interlaced=0 / bluray_compat=0 / constrained_intra=0 / bframes=3 / b_pyramid=2 / b_adapt=1 / b_bias=0 / direct=1 / weightb=1 / open_gop=0 / weightp=2 / keyint=250 / keyint_min=23 / scenecut=40 / intra_refresh=0 / rc_lookahead=40 / rc=2pass / mbtree=1 / bitrate=5696 / ratetol=1.0 / qcomp=0.60 / qpmin=0 / qpmax=69 / qpstep=4 / cplxblur=20.0 / qblur=0.5 / ip_ratio=1.40 / aq=1:1.00
Language                                 : English
Default                                  : Yes
Forced                                   : No

Audio
ID                                       : 2
Format                                   : DTS
Format/Info                              : Digital Theater Systems
Codec ID                                 : A_DTS
Duration                                 : 1 h 26 min
Bit rate mode                            : Constant
Bit rate                                 : 1 509 kb/s
Channel(s)                               : 2 channels
Channel layout                           : L R
Sampling rate                            : 48.0 kHz
Frame rate                               : 93.750 FPS (512 SPF)
Bit depth                                : 24 bits
Compression mode                         : Lossy
Stream size                              : 937 MiB (21%)
Language                                 : English
Default                                  : Yes
Forced                                   : No

Text #1
ID                                       : 3
Format                                   : UTF-8
Codec ID                                 : S_TEXT/UTF8
Codec ID/Info                            : UTF-8 Plain Text
Duration                                 : 1 h 23 min
Bit rate                                 : 49 b/s
Count of elements                        : 987
Stream size                              : 30.6 KiB (0%)
Language                                 : English
Default                                  : No
Forced                                   : No

Text #2
ID                                       : 4
Format                                   : UTF-8
Codec ID                                 : S_TEXT/UTF8
Codec ID/Info                            : UTF-8 Plain Text
Duration                                 : 1 h 26 min
Bit rate                                 : 53 b/s
Count of elements                        : 1145
Stream size                              : 33.6 KiB (0%)
Title                                    : SDH
Language                                 : English
Default                                  : No
Forced                                   : No

Menu
00:00:00.000                             : en:00:00:00.000
00:01:39.099                             : en:00:01:39.099
00:02:17.304                             : en:00:02:17.304
00:03:20.033                             : en:00:03:20.033
00:04:42.574                             : en:00:04:42.574
00:09:56.221                             : en:00:09:56.221
00:11:10.670                             : en:00:11:10.670
00:14:20.109                             : en:00:14:20.109
00:18:21.726                             : en:00:18:21.726
00:20:21.053                             : en:00:20:21.053
00:24:13.869                             : en:00:24:13.869
00:29:11.750                             : en:00:29:11.750
00:33:06.943                             : en:00:33:06.943
00:38:12.499                             : en:00:38:12.499
00:41:21.813                             : en:00:41:21.813
00:44:54.567                             : en:00:44:54.567
00:48:36.122                             : en:00:48:36.122
00:52:48.916                             : en:00:52:48.916
00:57:31.490                             : en:00:57:31.490
01:01:35.859                             : en:01:01:35.859
01:07:59.450                             : en:01:07:59.450
01:12:32.098                             : en:01:12:32.098
01:17:25.057                             : en:01:17:25.057
01:21:23.629                             : en:01:21:23.629
01:26:05.160                             : en:01:26:05.160




                                                                                                                                                                                                        
                                                                                                                                                                                                                                                                                                                                                                                                                                                                                                                                                                                                                                                                                                                                                                                                                                                      
7707621c7aeb9123ec697ef305d1e52b.torrent (44.54 KB, 下载次数: 0)

回复

使用道具 举报

小黑屋|百度云资源论坛 ( 闽ICP备16005822号-1 )

本网站所有资源来自网络,如无意中侵犯了您的权益,请发邮件至 [email protected],立即清除相关链接

GMT+8, 2019-9-20 03:56 , Processed in 0.086120 second(s), 19 queries .

Powered by Discuz! X3.2

© 2001-2013 Comsenz Inc.

快速回复 返回顶部 返回列表