百度云资源论坛

 找回密码
 立即注册
搜索
热搜: 百度云资源
开启左侧

与我同行 Follow.Me.1972.720p.BluRay.x264-SPOOKS 3.28GB

[复制链接]
百度云资源 发表于 2019-9-10 07:54:42 | 显示全部楼层 |阅读模式




帖子完整标题:与我同行 Follow.Me.1972.720p.BluRay.x264-SPOOKS 3.28GB





◎译  名 与我同行 / The Public Eye / 绿帽
◎片  名 Follow Me
◎年  代 1972
◎产  地 英国
◎类  别 喜剧
◎语  言 英语
◎上映日期 1972-07-18
◎IMDb评分  7.2/10 from 558 users
◎片  长 95 分钟
◎导  演 卡罗尔·里德 Carol Reed
◎编  剧 Peter Shaffer
◎主  演 米亚·法罗 Mia Farrow
       Topol
       Michael Jayston


◎标  签 Carol_Reed | 英国 | 喜剧 | 1970s | 英国电影 | 美国电影 | 电影 | 彼得谢弗

◎简  介  

  When a straight-laced British accountant marries a free-spirited American, he starts trying to change her. His wife doesn't keep regular hours, so he suspects an affair and hires a detective (Topol). The wife notices she is being followed, and maintaining their distance she and the detective explore London for 10 days in a game of follow-the-leader without ever exchanging a word.
Video
ID                                       : 1
Format                                   : AVC
Format/Info                              : Advanced Video Codec
Format settings                          : CABAC / 12 Ref Frames
Format settings, CABAC                   : Yes
Format settings, Reference frames        : 12 frames
Codec ID                                 : V_MPEG4/ISO/AVC
Duration                                 : 1 h 33 min
Bit rate                                 : 4 769 kb/s
Width                                    : 1 280 pixels
Height                                   : 544 pixels
Display aspect ratio                     : 2.35:1
Frame rate mode                          : Constant
Frame rate                               : 23.976 (24000/1001) FPS
Color space                              : YUV
Chroma subsampling                       : 4:2:0
Bit depth                                : 8 bits
Scan type                                : Progressive
Bits/(Pixel*Frame)                       : 0.286
Stream size                              : 3.11 GiB (95%)
Writing library                          : x264 core 158 r2984 3759fcb
Encoding settings                        : cabac=1 / ref=12 / deblock=1:-3:-3 / analyse=0x3:0x133 / me=umh / subme=9 / psy=1 / psy_rd=1.00:0.00 / mixed_ref=1 / me_range=24 / chroma_me=1 / trellis=1 / 8x8dct=1 / cqm=0 / deadzone=21,11 / fast_pskip=0 / chroma_qp_offset=-2 / threads=17 / lookahead_threads=2 / sliced_threads=0 / nr=0 / decimate=1 / interlaced=0 / bluray_compat=0 / constrained_intra=0 / bframes=8 / b_pyramid=2 / b_adapt=2 / b_bias=0 / direct=3 / weightb=1 / open_gop=0 / weightp=2 / keyint=250 / keyint_min=23 / scenecut=40 / intra_refresh=0 / rc_lookahead=60 / rc=2pass / mbtree=1 / bitrate=4769 / ratetol=1.0 / qcomp=0.60 / qpmin=0 / qpmax=69 / qpstep=4 / cplxblur=20.0 / qblur=0.5 / vbv_maxrate=62500 / vbv_bufsize=78125 / nal_hrd=none / filler=0 / ip_ratio=1.40 / aq=1:1.00
Default                                  : Yes
Forced                                   : No

Audio
ID                                       : 2
Format                                   : FLAC
Format/Info                              : Free Lossless Audio Codec
Codec ID                                 : A_FLAC
Duration                                 : 1 h 33 min
Bit rate mode                            : Variable
Bit rate                                 : 255 kb/s
Channel(s)                               : 2 channels
Channel layout                           : L R
Sampling rate                            : 48.0 kHz
Frame rate                               : 10.417 FPS (4608 SPF)
Bit depth                                : 16 bits
Compression mode                         : Lossless
Stream size                              : 170 MiB (5%)
Writing library                          : Lavf58.20.100
Language                                 : English
Default                                  : Yes
Forced                                   : No

Menu
00:00:00.000                             : en:Chapter 01
00:02:58.095                             : en:Chapter 02
00:14:13.102                             : en:Chapter 03
00:21:41.467                             : en:Chapter 04
00:29:36.733                             : en:Chapter 05
00:36:31.481                             : en:Chapter 06
00:45:11.083                             : en:Chapter 07
00:52:33.567                             : en:Chapter 08
00:59:07.627                             : en:Chapter 09
01:06:10.008                             : en:Chapter 10
01:13:49.467                             : en:Chapter 11
01:23:34.134                             : en:Chapter 12




                                                                                                                                                                                                        
                                                                                                                                                                                                                                                                                                                                                                                                                                                                                                                                                                                                                                                                                                                                                                                                                                                      
e4c9df89b419788b8b4ea53734fe21b2.torrent (33.59 KB, 下载次数: 0)

回复

使用道具 举报

小黑屋|百度云资源论坛 ( 闽ICP备16005822号-1 )

本网站所有资源来自网络,如无意中侵犯了您的权益,请发邮件至 [email protected],立即清除相关链接

GMT+8, 2019-9-20 03:57 , Processed in 0.076322 second(s), 19 queries .

Powered by Discuz! X3.2

© 2001-2013 Comsenz Inc.

快速回复 返回顶部 返回列表