百度云资源论坛

 找回密码
 立即注册
搜索
热搜: 百度云资源
开启左侧

圣安地列斯超强地震 San.Andreas.Mega.Quake.2019.720p.BluRay.x264-GUAC...

[复制链接]
百度云电影 发表于 2019-9-10 07:54:43 | 显示全部楼层 |阅读模式




帖子完整标题:圣安地列斯超强地震 San.Andreas.Mega.Quake.2019.720p.BluRay.x264-GUACAMOLE 4.37GB





◎译  名 圣安地列斯超强地震
◎片  名 San Andreas Mega Quake
◎年  代 2019
◎产  地 美国
◎语  言 英语
◎上映日期 2019-04-03(美国)
◎IMDb评分  2.3/10 from 62 users
◎片  长 87分钟
◎导  演 H.M. Coakley
◎编  剧 Geoff Meed / Ryan Ebert
◎主  演 Joseph Michael Harris
       Glen Baggerly
       Liz Fenning
       莎拉·J·巴塞洛缪


◎标  签 科幻 | 烂片 | 灾难 | 垃圾 | 动作 | 冒险 | 3D

◎简  介  

  Scientists make a horrible discovery: The "Big One" is coming in two days, with it, California will sink to the ocean. Their only hope is to rupture a volcano that will displace the earthquake's energy and build a new crust on the surface. But as foreshocks turn California into chaos, it's a race against time the scientists might not win.
Video
ID                                       : 1
Format                                   : AVC
Format/Info                              : Advanced Video Codec
Format settings                          : CABAC / 5 Ref Frames
Format settings, CABAC                   : Yes
Format settings, Reference frames        : 5 frames
Codec ID                                 : V_MPEG4/ISO/AVC
Duration                                 : 1 h 27 min
Bit rate                                 : 5 665 kb/s
Width                                    : 1 280 pixels
Height                                   : 544 pixels
Display aspect ratio                     : 2.35:1
Frame rate mode                          : Constant
Frame rate                               : 23.976 (24000/1001) FPS
Color space                              : YUV
Chroma subsampling                       : 4:2:0
Bit depth                                : 8 bits
Scan type                                : Progressive
Bits/(Pixel*Frame)                       : 0.339
Stream size                              : 3.45 GiB (79%)
Writing library                          : x264 core 157 r2969 d4099dd
Encoding settings                        : cabac=1 / ref=5 / deblock=1:0:0 / analyse=0x3:0x113 / me=umh / subme=8 / psy=1 / psy_rd=1.00:0.00 / mixed_ref=1 / me_range=16 / chroma_me=1 / trellis=2 / 8x8dct=1 / cqm=0 / deadzone=21,11 / fast_pskip=0 / chroma_qp_offset=-2 / threads=17 / lookahead_threads=2 / sliced_threads=0 / nr=0 / decimate=1 / interlaced=0 / bluray_compat=0 / constrained_intra=0 / bframes=3 / b_pyramid=2 / b_adapt=1 / b_bias=0 / direct=1 / weightb=1 / open_gop=0 / weightp=2 / keyint=250 / keyint_min=23 / scenecut=40 / intra_refresh=0 / rc_lookahead=50 / rc=2pass / mbtree=1 / bitrate=5665 / ratetol=1.0 / qcomp=0.60 / qpmin=0 / qpmax=69 / qpstep=4 / cplxblur=20.0 / qblur=0.5 / ip_ratio=1.40 / aq=1:1.00
Default                                  : Yes
Forced                                   : No

Audio
ID                                       : 2
Format                                   : DTS
Format/Info                              : Digital Theater Systems
Codec ID                                 : A_DTS
Duration                                 : 1 h 27 min
Bit rate mode                            : Constant
Bit rate                                 : 1 509 kb/s
Channel(s)                               : 6 channels
Channel layout                           : C L R Ls Rs LFE
Sampling rate                            : 48.0 kHz
Frame rate                               : 93.750 FPS (512 SPF)
Bit depth                                : 24 bits
Compression mode                         : Lossy
Stream size                              : 941 MiB (21%)
Language                                 : English
Default                                  : Yes
Forced                                   : No

Menu
00:00:00.000                             : en:00:00:00.000
00:10:00.600                             : en:00:10:00.600
00:20:01.200                             : en:00:20:01.200
00:30:01.800                             : en:00:30:01.800
00:40:02.400                             : en:00:40:02.400
00:50:03.000                             : en:00:50:03.000
01:00:03.600                             : en:01:00:03.600
01:10:04.200                             : en:01:10:04.200
01:20:04.800                             : en:01:20:04.800




                                                                                                                                                                                                        
                                                                                                                                                                                                                                                                                                                                                                                                                                                                                                                                                                                                                                                                                                                                                                                                                                                      
e8fc5a47b14494f2036f19f3882a2091.torrent (44.39 KB, 下载次数: 0)

回复

使用道具 举报

小黑屋|百度云资源论坛 ( 闽ICP备16005822号-1 )

本网站所有资源来自网络,如无意中侵犯了您的权益,请发邮件至 [email protected],立即清除相关链接

GMT+8, 2019-9-20 03:54 , Processed in 0.083423 second(s), 19 queries .

Powered by Discuz! X3.2

© 2001-2013 Comsenz Inc.

快速回复 返回顶部 返回列表