百度云资源论坛

 找回密码
 立即注册
搜索
热搜: 百度云资源
开启左侧

半斤八兩 The.Private.Eyes.1976.MANDARiN.DUBBED.720p.BluRay.x264-REGRET 4....

[复制链接]
百度云电影 发表于 2019-9-10 07:54:46 | 显示全部楼层 |阅读模式




帖子完整标题:半斤八兩 The.Private.Eyes.1976.MANDARiN.DUBBED.720p.BluRay.x264-REGRET 4.37GB





◎译  名 半斤八两 / The Private Eyes
◎片  名 半斤八兩
◎年  代 1976
◎产  地 中国香港
◎类  别 喜剧
◎语  言 粤语
◎上映日期 1976-12-16(中国香港)
◎IMDb评分  7.1/10 from 556 users
◎片  长 94分钟
◎导  演 许冠文 Michael Hui
◎编  剧 许冠文 Michael Hui
◎主  演 许冠文 Michael Hui
       许冠杰 Samuel Hui
       许冠英 Ricky Hui
       赵雅芝 Angie Chiu
       吴耀汉 Richard Ng
       卢慧芝 Wai Chi Lo
       石坚 Kien Shih
       朱牧 Mu Zhu
       许冠武 Stanley Hui
       陈任 Joe Chan
       张俊英 Chun Ying Chang
       黎少芳 Siu-Fong Lai
       郑少萍 Siu Ping Cheng
       梁舜燕 Lily Leung
       陈剑云 Kim-Wan Chan
       高雄 Hsiung Kao
       解元 Yuan Chieh
       萧钦芳 Chin-Fang Hsiao
       曾楚霖 Choh-Lam Tsang
       黄哈 Ha Huang


◎标  签 喜剧 | 香港 | 许冠文 | 香港电影 | 许冠杰 | 许冠英 | 赵雅芝 | 1976

◎简  介  

  万能私家侦探社是一家连同社长黄若思(许冠文)在内只有三名工作人员的小侦探社,由于生意不咸不淡,加上黄若思为人小气刻薄,员工河豚(许冠英)和积琪(赵雅芝),尤其前者没少遭罪。原在汽水厂上班的李国杰(许冠杰)因工作偷懒被老板解雇,一身好功夫的他来到万能求职,黄若思起初不肯雇用,随后见他的确有两把刷子,应了下来,薪水自然苛刻。
  李国杰没来之前,黄若思与河豚搭档侦探的,无非一些风流、偷窃、欺诈事务,这些案件不是每一都能侦破,而侦破的过程常常充满尴尬,远称不上完美,但其时香港社会的百态却一览无遗。他来之后,三人的合作亦是如此。更要命的,是他们常被警探(吴耀汉)误视作不法分子。
  几件不大不小的案子,尤其八十岁老翁的娇妻(卢慧芝)在外与人(吴耀汉)偷情一案办过,李国杰显现出比黄若思更强的工作能力,更得客户青睐。某日,黄若思与李国杰受委托来到某家先前被劫匪威胁、现有劫匪出入的戏院,捕捉劫匪的过程中,黄若思被匪首(石坚)的几声枪响吓破胆且负伤,李国杰却凭机智将劫匪制服并收获意外好处,两人身份一时对调。
Video
ID                                       : 1
Format                                   : AVC
Format/Info                              : Advanced Video Codec
Format settings                          : CABAC / 5 Ref Frames
Format settings, CABAC                   : Yes
Format settings, Reference frames        : 5 frames
Codec ID                                 : V_MPEG4/ISO/AVC
Duration                                 : 1 h 36 min
Bit rate                                 : 5 865 kb/s
Width                                    : 1 280 pixels
Height                                   : 544 pixels
Display aspect ratio                     : 2.35:1
Frame rate mode                          : Constant
Frame rate                               : 23.976 (24000/1001) FPS
Color space                              : YUV
Chroma subsampling                       : 4:2:0
Bit depth                                : 8 bits
Scan type                                : Progressive
Bits/(Pixel*Frame)                       : 0.351
Stream size                              : 3.94 GiB (90%)
Writing library                          : x264 core 157 r2970 5493be8
Encoding settings                        : cabac=1 / ref=5 / deblock=1:-3:-3 / analyse=0x3:0x133 / me=umh / subme=9 / psy=1 / psy_rd=1.00:0.00 / mixed_ref=1 / me_range=16 / chroma_me=1 / trellis=2 / 8x8dct=1 / cqm=0 / deadzone=21,11 / fast_pskip=0 / chroma_qp_offset=-2 / threads=17 / lookahead_threads=1 / sliced_threads=0 / nr=0 / decimate=1 / interlaced=0 / bluray_compat=0 / constrained_intra=0 / bframes=3 / b_pyramid=2 / b_adapt=1 / b_bias=0 / direct=3 / weightb=1 / open_gop=0 / weightp=2 / keyint=240 / keyint_min=24 / scenecut=40 / intra_refresh=0 / rc_lookahead=50 / rc=2pass / mbtree=1 / bitrate=5865 / ratetol=1.0 / qcomp=0.60 / qpmin=0 / qpmax=69 / qpstep=4 / cplxblur=20.0 / qblur=0.5 / ip_ratio=1.40 / aq=1:1.00
Language                                 : English
Default                                  : Yes
Forced                                   : No

Audio
ID                                       : 2
Format                                   : AC-3
Format/Info                              : Audio Coding 3
Commercial name                          : Dolby Digital
Codec ID                                 : A_AC3
Duration                                 : 1 h 36 min
Bit rate mode                            : Constant
Bit rate                                 : 640 kb/s
Channel(s)                               : 6 channels
Channel layout                           : L R C LFE Ls Rs
Sampling rate                            : 48.0 kHz
Frame rate                               : 31.250 FPS (1536 SPF)
Bit depth                                : 16 bits
Compression mode                         : Lossy
Stream size                              : 440 MiB (10%)
Language                                 : Chinese
Service kind                             : Complete Main
Default                                  : Yes
Forced                                   : No

Menu
00:00:00.000                             : en:00:00:00.000
00:04:30.479                             : en:00:04:30.479
00:09:37.452                             : en:00:09:37.452
00:12:51.813                             : en:00:12:51.813
00:19:35.925                             : en:00:19:35.925
00:22:39.149                             : en:00:22:39.149
00:28:57.653                             : en:00:28:57.653
00:32:37.956                             : en:00:32:37.956
00:39:38.293                             : en:00:39:38.293
00:48:25.111                             : en:00:48:25.111
00:54:12.624                             : en:00:54:12.624
00:58:10.821                             : en:00:58:10.821
01:02:46.846                             : en:01:02:46.846
01:05:44.941                             : en:01:05:44.941
01:10:09.914                             : en:01:10:09.914
01:16:08.773                             : en:01:16:08.773
01:20:42.087                             : en:01:20:42.087
01:27:10.350                             : en:01:27:10.350
01:30:10.238                             : en:01:30:10.238
01:33:44.619                             : en:01:33:44.619




                                                                                                                                                                                                        
                                                                                                                                                                                                                                                                                                                                                                                                                                                                                                                                                                                                                                                                                                                                                                                                                                                      
bb8275908200eb99af05f6d613346d96.torrent (44.39 KB, 下载次数: 0)

回复

使用道具 举报

小黑屋|百度云资源论坛 ( 闽ICP备16005822号-1 )

本网站所有资源来自网络,如无意中侵犯了您的权益,请发邮件至 [email protected],立即清除相关链接

GMT+8, 2019-9-20 03:54 , Processed in 0.072808 second(s), 19 queries .

Powered by Discuz! X3.2

© 2001-2013 Comsenz Inc.

快速回复 返回顶部 返回列表