百度云资源论坛

 找回密码
 立即注册
搜索
热搜: 百度云资源
开启左侧

三太太 The.Third.Wife.2018.LiMiTED.1080p.BluRay.x264-CADAVER 6.56GB

[复制链接]
百度云电影 发表于 2019-9-10 07:54:59 | 显示全部楼层 |阅读模式




帖子完整标题:三太太 The.Third.Wife.2018.LiMiTED.1080p.BluRay.x264-CADAVER 6.56GB





◎译  名 三太太 / The Third Wife / 小三妻(港) / 落红
◎片  名 V? Ba
◎年  代 2018
◎产  地 越南
◎类  别 剧情
◎语  言 越南语
◎上映日期 2018-09-07(多伦多电影节)
◎IMDb评分  7.0/10 from 642 users
◎片  长 96分钟
◎导  演 阮芳英 Ash Mayfair
◎编  剧 阮芳英 Ash Mayfair
◎主  演 阮如琼 Nhu Quynh Nguyen
       陈女燕溪 Tran Nu Yên-Khê
       阮芳茶眉 Nguy?n Ph??ng Trà My
       黎武隆 Lê V? Long
       玛雅 Maya
       清美 Thanh My


◎标  签 越南 | 女性 | 剧情 | 2018 | 金马影展 | 家庭 | BIFF | 爱情

◎简  介  

  故事发生在十九世纪末的越南乡郊,十四岁少女被迫奉父母之命嫁给年纪比她大得多的男人,成为三太太。失落的情愫与隐秘的欲望是禁忌,吞落肚,少女一夜长大。她能否摆脱父权的控制,逃向自然,即便一个自由的蜉蝣也好?

◎获奖情况  

  第43届多伦多国际电影节(2018)
  亚洲电影促进联盟奖

  第66届圣塞巴斯蒂安国际电影节(2018)
  最佳新导演(提名) 阮芳英
Video
ID                                       : 1
Format                                   : AVC
Format/Info                              : Advanced Video Codec
Format settings                          : CABAC / 4 Ref Frames
Format settings, CABAC                   : Yes
Format settings, Reference frames        : 4 frames
Codec ID                                 : V_MPEG4/ISO/AVC
Duration                                 : 1 h 32 min
Bit rate                                 : 8 642 kb/s
Width                                    : 1 616 pixels
Height                                   : 1 080 pixels
Display aspect ratio                     : 3:2
Frame rate mode                          : Constant
Frame rate                               : 23.976 (24000/1001) FPS
Color space                              : YUV
Chroma subsampling                       : 4:2:0
Bit depth                                : 8 bits
Scan type                                : Progressive
Bits/(Pixel*Frame)                       : 0.207
Stream size                              : 5.58 GiB (85%)
Writing library                          : x264 core 158 r2984 3759fcb
Encoding settings                        : cabac=1 / ref=4 / deblock=1:-3:-3 / analyse=0x3:0x133 / me=umh / subme=9 / psy=1 / psy_rd=1.00:0.00 / mixed_ref=1 / me_range=24 / chroma_me=1 / trellis=1 / 8x8dct=1 / cqm=0 / deadzone=21,11 / fast_pskip=0 / chroma_qp_offset=-2 / threads=24 / lookahead_threads=4 / sliced_threads=0 / nr=0 / decimate=1 / interlaced=0 / bluray_compat=0 / constrained_intra=0 / bframes=8 / b_pyramid=2 / b_adapt=2 / b_bias=0 / direct=3 / weightb=1 / open_gop=0 / weightp=2 / keyint=250 / keyint_min=23 / scenecut=40 / intra_refresh=0 / rc_lookahead=60 / rc=2pass / mbtree=1 / bitrate=8642 / ratetol=1.0 / qcomp=0.60 / qpmin=0 / qpmax=69 / qpstep=4 / cplxblur=20.0 / qblur=0.5 / vbv_maxrate=62500 / vbv_bufsize=78125 / nal_hrd=none / filler=0 / ip_ratio=1.40 / aq=1:1.00
Default                                  : Yes
Forced                                   : No

Audio
ID                                       : 2
Format                                   : DTS
Format/Info                              : Digital Theater Systems
Codec ID                                 : A_DTS
Duration                                 : 1 h 32 min
Bit rate mode                            : Constant
Bit rate                                 : 1 509 kb/s
Channel(s)                               : 6 channels
Channel layout                           : C L R Ls Rs LFE
Sampling rate                            : 48.0 kHz
Frame rate                               : 93.750 FPS (512 SPF)
Bit depth                                : 24 bits
Compression mode                         : Lossy
Stream size                              : 998 MiB (15%)
Language                                 : Vietnamese
Default                                  : Yes
Forced                                   : No

Text
ID                                       : 3
Format                                   : UTF-8
Codec ID                                 : S_TEXT/UTF8
Codec ID/Info                            : UTF-8 Plain Text
Duration                                 : 1 h 13 min
Bit rate                                 : 14 b/s
Count of elements                        : 390
Stream size                              : 7.50 KiB (0%)
Language                                 : English
Default                                  : Yes
Forced                                   : No

Menu
00:00:00.000                             : en:Chapter 01
00:08:53.867                             : en:Chapter 02
00:19:01.182                             : en:Chapter 03
00:31:32.766                             : en:Chapter 04
00:40:22.920                             : en:Chapter 05
00:50:11.008                             : en:Chapter 06
00:59:18.889                             : en:Chapter 07
01:11:04.302                             : en:Chapter 08
01:19:05.449                             : en:Chapter 09
01:24:46.373                             : en:Chapter 10




                                                                                                                                                                                                        
                                                                                                                                                                                                                                                                                                                                                                                                                                                                                                                                                                                                                                                                                                                                                                                                                                                      
bb86708062fae54e6c0461745b2f0cbd.torrent (33.71 KB, 下载次数: 0)

回复

使用道具 举报

小黑屋|百度云资源论坛 ( 闽ICP备16005822号-1 )

本网站所有资源来自网络,如无意中侵犯了您的权益,请发邮件至 [email protected],立即清除相关链接

GMT+8, 2019-9-20 03:54 , Processed in 0.125215 second(s), 19 queries .

Powered by Discuz! X3.2

© 2001-2013 Comsenz Inc.

快速回复 返回顶部 返回列表