百度云资源论坛

 找回密码
 立即注册
搜索
热搜: 百度云资源
开启左侧

蓝色音符爵士厂牌:不止音符 Blue.Note.Records.Beyond.The.Notes.2018...

[复制链接]




帖子完整标题:蓝色音符爵士厂牌:不止音符 Blue.Note.Records.Beyond.The.Notes.2018.1080p.BluRay.x264-HANDJOB 6.80GB





◎译  名 蓝色音符爵士厂牌:不止音符
◎片  名 Blue Note Records: Beyond the Notes
◎年  代 2018
◎产  地 瑞士
◎类  别 纪录片 / 音乐
◎语  言 英语
◎上映日期 2018-04(美国)
◎IMDb评分  7.3/10 from 125 users
◎片  长 87分钟
◎导  演 索菲·胡贝尔 Sophie Huber
◎编  剧 索菲·胡贝尔 Sophie Huber
◎主  演 诺拉·琼斯 Norah Jones
       赫比·汉考克 Herbie Hancock
       Robert Glasper
       Wayne Shorter
       Don Was


◎标  签 纪录片 | 音乐 | Jazz | 爵士 | 2018 | 美国 | SIFF2018 | 2018上海国际电影节

◎简  介  

  本片探索了“蓝色音调”这一著名爵士唱片公司的独到理念。阿尔弗雷德·莱昂和弗朗西斯·沃尔夫是来自德国的犹太难民,这两位爵士乐迷于1939年在纽约创办“蓝色音调”爵士厂牌,给予音乐家充分的自由,鼓励他们积极创新。影片中,爵士的过去和现在大不相同。如今,录音方式更为新颖,提供了一个创造性改革爵士乐的机会,爵士传奇大师赫比·汉考克和韦恩·肖特联合当代杰出的“蓝色音调”音乐人,一起录制全明星专辑。电影利用一些珍贵历史影像、现今的录音资料以及“蓝色音调”音乐人和其他相关人员的对话,让观众能够看到幕后制作工作,展现出充满激情的追求精神,这在当今的政治环境下显得尤为重要。
Video
ID                                       : 1
Format                                   : AVC
Format/Info                              : Advanced Video Codec
Format settings                          : CABAC / 4 Ref Frames
Format settings, CABAC                   : Yes
Format settings, Reference frames        : 4 frames
Codec ID                                 : V_MPEG4/ISO/AVC
Duration                                 : 1 h 26 min
Bit rate                                 : 10.6 Mb/s
Width                                    : 1 920 pixels
Height                                   : 1 080 pixels
Display aspect ratio                     : 16:9
Frame rate mode                          : Constant
Frame rate                               : 23.976 (24000/1001) FPS
Color space                              : YUV
Chroma subsampling                       : 4:2:0
Bit depth                                : 8 bits
Scan type                                : Progressive
Bits/(Pixel*Frame)                       : 0.213
Stream size                              : 6.41 GiB (94%)
Writing library                          : x264 core 157 r2935 545de2f
Encoding settings                        : cabac=1 / ref=4 / deblock=1:-3:-3 / analyse=0x3:0x133 / me=umh / subme=10 / psy=1 / psy_rd=1.00:0.00 / mixed_ref=1 / me_range=32 / chroma_me=1 / trellis=2 / 8x8dct=1 / cqm=0 / deadzone=21,11 / fast_pskip=0 / chroma_qp_offset=-2 / threads=12 / lookahead_threads=3 / sliced_threads=0 / nr=0 / decimate=0 / interlaced=0 / bluray_compat=0 / constrained_intra=0 / bframes=16 / b_pyramid=2 / b_adapt=2 / b_bias=0 / direct=3 / weightb=1 / open_gop=0 / weightp=2 / keyint=240 / keyint_min=24 / scenecut=40 / intra_refresh=0 / rc_lookahead=60 / rc=crf / mbtree=0 / crf=17.0 / qcomp=0.60 / qpmin=0 / qpmax=69 / qpstep=4 / vbv_maxrate=62500 / vbv_bufsize=78125 / crf_max=0.0 / nal_hrd=none / filler=0 / ip_ratio=1.40 / pb_ratio=1.30 / aq=2:1.00
Default                                  : Yes
Forced                                   : No
Color range                              : Limited
Color primaries                          : BT.709
Transfer characteristics                 : BT.709
Matrix coefficients                      : BT.709

Audio
ID                                       : 2
Format                                   : AC-3
Format/Info                              : Audio Coding 3
Commercial name                          : Dolby Digital
Codec ID                                 : A_AC3
Duration                                 : 1 h 26 min
Bit rate mode                            : Constant
Bit rate                                 : 640 kb/s
Channel(s)                               : 6 channels
Channel layout                           : L R C LFE Ls Rs
Sampling rate                            : 48.0 kHz
Frame rate                               : 31.250 FPS (1536 SPF)
Bit depth                                : 16 bits
Compression mode                         : Lossy
Stream size                              : 396 MiB (6%)
Language                                 : English
Service kind                             : Complete Main
Default                                  : Yes
Forced                                   : No

Text #1
ID                                       : 3
Format                                   : UTF-8
Codec ID                                 : S_TEXT/UTF8
Codec ID/Info                            : UTF-8 Plain Text
Duration                                 : 1 h 24 min
Bit rate                                 : 81 b/s
Count of elements                        : 1222
Stream size                              : 50.0 KiB (0%)
Title                                    : English
Language                                 : English
Default                                  : No
Forced                                   : No

Text #2
ID                                       : 4
Format                                   : UTF-8
Codec ID                                 : S_TEXT/UTF8
Codec ID/Info                            : UTF-8 Plain Text
Duration                                 : 1 h 24 min
Bit rate                                 : 74 b/s
Count of elements                        : 1236
Stream size                              : 45.7 KiB (0%)
Title                                    : Espa?ol
Language                                 : Spanish
Default                                  : No
Forced                                   : No

Text #3
ID                                       : 5
Format                                   : UTF-8
Codec ID                                 : S_TEXT/UTF8
Codec ID/Info                            : UTF-8 Plain Text
Duration                                 : 1 h 24 min
Bit rate                                 : 85 b/s
Count of elements                        : 1263
Stream size                              : 52.5 KiB (0%)
Title                                    : Fran?ais
Language                                 : French
Default                                  : No
Forced                                   : No

Text #4
ID                                       : 6
Format                                   : UTF-8
Codec ID                                 : S_TEXT/UTF8
Codec ID/Info                            : UTF-8 Plain Text
Duration                                 : 1 h 24 min
Bit rate                                 : 77 b/s
Count of elements                        : 1194
Stream size                              : 47.7 KiB (0%)
Title                                    : Deutsch
Language                                 : German
Default                                  : No
Forced                                   : No

Menu
00:00:00.000                             : :Chapter 1
00:03:44.641                             : :Chapter 2
00:08:07.487                             : :Chapter 3
00:16:38.623                             : :Chapter 4
00:26:12.196                             : :Chapter 5
00:33:09.112                             : :Chapter 6
00:40:46.527                             : :Chapter 7
00:47:08.075                             : :Chapter 8
01:00:27.666                             : :Chapter 9
01:06:19.559                             : :Chapter 10
01:13:35.286                             : :Chapter 11
01:24:05.874                             : :Chapter 12




                                                                                                                                                                                                        
                                                                                                                                                                                                                                                                                                                                                                                                                                                                                                                                                                                                                                                                                                                                                                                                                                                      
e7e18b21877016281ea0422e100e7f88.torrent (34.53 KB, 下载次数: 0)

回复

使用道具 举报

小黑屋|百度云资源论坛 ( 闽ICP备16005822号-1 )

本网站所有资源来自网络,如无意中侵犯了您的权益,请发邮件至 [email protected],立即清除相关链接

GMT+8, 2019-9-16 11:12 , Processed in 0.062173 second(s), 19 queries .

Powered by Discuz! X3.2

© 2001-2013 Comsenz Inc.

快速回复 返回顶部 返回列表