百度云资源论坛

 找回密码
 立即注册
搜索
热搜: 百度云资源
开启左侧

极限职业 Extreme.Job.2019.KOREAN.1080p.BluRay.x264.DTS-HD.MA.5.1-CHD 10.22GB

[复制链接]
百度云资源 发表于 2019-9-10 07:55:04 | 显示全部楼层 |阅读模式




帖子完整标题:极限职业 Extreme.Job.2019.KOREAN.1080p.BluRay.x264.DTS-HD.MA.5.1-CHD 10.22GB





◎译  名 极限职业 / Extreme Job / 极端职业 / 极限行业 / 炸鸡特攻队(港) / 鸡不可失(台)
◎片  名 ????
◎年  代 2019
◎产  地 韩国
◎类  别 喜剧 / 动作 / 犯罪
◎语  言 韩语 / 汉语普通话 / 英语 / 日语
◎上映日期 2019-01-23(韩国)
◎IMDb评分  7.2/10 from 1759 users
◎片  长 111分钟
◎导  演 李炳宪 Byeong-Heon Lee
◎编  剧 裴世英 Se-yeong Bae
◎主  演 柳承龙 Seung-yong Ryoo
       李东辉 Dong-Hwi Lee
       李荷妮 Ha-nui Lee
       陈善圭 Jin Sun-kyu
       申河均 Ha-kyun Shin


◎标  签 韩国 | 喜剧 | 搞笑 | 警匪 | 犯罪 | 动作 | 2019 | 剧情

◎简  介  

  影片故事围绕毒品侦察班而展开,毒品侦察班业绩超差,面临被撤销的危机,但突然有了一个线索,侦察班全体成员决心搏一搏。于是,他们开始潜伏在一家炸鸡店,监视毒贩,然而这炸鸡店业绩也超差,高班长为了保住这个侦察的好地方,盘下了炸鸡店。为了掩护身份,只能老老实实干起了炸鸡的生意,没想到其中一位警官却做出了具有独特口味炸鸡,导致生意做的红红火火。

◎获奖情况  

  第55届百想艺术大赏(2019)
  电影类 最佳男主角(提名) 柳承龙
  电影类 最佳男配角(提名) 陈善圭
  电影类 最佳女配角(提名) 李荷妮
  电影类 最佳新人男演员(提名) 孔明
  电影类 最佳编剧(提名) 裴世英
Video
ID                                       : 1
Format                                   : AVC
Format/Info                              : Advanced Video Codec
Format settings                          : CABAC / 4 Ref Frames
Format settings, CABAC                   : Yes
Format settings, Reference frames        : 4 frames
Codec ID                                 : V_MPEG4/ISO/AVC
Duration                                 : 1 h 51 min
Bit rate                                 : 11.1 Mb/s
Width                                    : 1 920 pixels
Height                                   : 804 pixels
Display aspect ratio                     : 2.40:1
Frame rate mode                          : Constant
Frame rate                               : 24.000 FPS
Color space                              : YUV
Chroma subsampling                       : 4:2:0
Bit depth                                : 8 bits
Scan type                                : Progressive
Bits/(Pixel*Frame)                       : 0.299
Stream size                              : 8.60 GiB (84%)
Writing library                          : x264 core 157 r2867+150 7e91e0e t_mod_Custom_2 [1 X86_64]
Encoding settings                        : cabac=1 / ref=4 / deblock=1:-3:-3 / analyse=0x3:0x133 / me=umh / subme=11 / psy=1 / fade_compensate=0.00 / psy_rd=0.90:0.10 / mixed_ref=1 / me_range=64 / chroma_me=1 / trellis=2 / 8x8dct=1 / cqm=0 / deadzone=21,11 / fast_pskip=0 / chroma_qp_offset=-4 / threads=25 / lookahead_threads=4 / sliced_threads=0 / nr=0 / decimate=1 / interlaced=0 / bluray_compat=0 / constrained_intra=0 / fgo=0 / bframes=8 / b_pyramid=2 / b_adapt=2 / b_bias=0 / direct=3 / weightb=1 / open_gop=0 / weightp=2 / keyint=250 / keyint_min=24 / scenecut=40 / intra_refresh=0 / rc_lookahead=60 / rc=crf / mbtree=0 / crf=18.0000 / qcomp=0.70 / qpmin=0:0:0 / qpmax=69:69:69 / qpstep=4 / vbv_maxrate=35000 / vbv_bufsize=35000 / crf_max=0.0 / nal_hrd=none / filler=0 / ip_ratio=1.40 / pb_ratio=1.30 / aq=3:1.00 / aq-sensitivity=10.00 / aq-factor=1.00:1.00:1.00 / aq2=0 / aq3=0
Language                                 : Korean
Default                                  : Yes
Forced                                   : No

Audio
ID                                       : 2
Format                                   : DTS XLL
Format/Info                              : Digital Theater Systems
Commercial name                          : DTS-HD Master Audio
Codec ID                                 : A_DTS
Duration                                 : 1 h 51 min
Bit rate mode                            : Variable
Bit rate                                 : 2 049 kb/s
Channel(s)                               : 6 channels
Channel layout                           : C L R Ls Rs LFE
Sampling rate                            : 48.0 kHz
Frame rate                               : 93.750 FPS (512 SPF)
Bit depth                                : 16 bits
Compression mode                         : Lossless
Stream size                              : 1.59 GiB (16%)
Language                                 : Korean
Default                                  : Yes
Forced                                   : No

Text #1
ID                                       : 3
Format                                   : UTF-8
Codec ID                                 : S_TEXT/UTF8
Codec ID/Info                            : UTF-8 Plain Text
Duration                                 : 1 h 47 min
Bit rate                                 : 52 b/s
Count of elements                        : 1607
Stream size                              : 41.5 KiB (0%)
Title                                    : English-SRT
Language                                 : English
Default                                  : No
Forced                                   : No

Text #2
ID                                       : 4
Format                                   : PGS
Muxing mode                              : zlib
Codec ID                                 : S_HDMV/PGS
Codec ID/Info                            : Picture based subtitle format used on BDs/HD-DVDs
Duration                                 : 1 h 47 min
Bit rate                                 : 42.2 kb/s
Count of elements                        : 3212
Stream size                              : 32.3 MiB (0%)
Title                                    : English-PGS
Language                                 : English
Default                                  : No
Forced                                   : No

Text #3
ID                                       : 5
Format                                   : PGS
Muxing mode                              : zlib
Codec ID                                 : S_HDMV/PGS
Codec ID/Info                            : Picture based subtitle format used on BDs/HD-DVDs
Duration                                 : 1 h 46 min
Bit rate                                 : 32.8 kb/s
Count of elements                        : 3205
Stream size                              : 25.1 MiB (0%)
Title                                    : Chinese-PGS
Language                                 : Chinese
Default                                  : Yes
Forced                                   : No

Menu
00:00:00.000                             : en:绗?01 绔?
00:07:25.292                             : en:绗?02 绔?
00:17:20.125                             : en:绗?03 绔?
00:26:57.583                             : en:绗?04 绔?
00:35:21.125                             : en:绗?05 绔?
00:46:18.083                             : en:绗?06 绔?
00:56:10.750                             : en:绗?07 绔?
01:04:23.667                             : en:绗?08 绔?
01:13:56.333                             : en:绗?09 绔?
01:23:06.583                             : en:绗?10 绔?
01:31:29.917                             : en:绗?11 绔?
01:39:09.042                             : en:绗?12 绔?




                                                                                                                                                                                                        
                                                                                                                                                                                                                                                                                                                                                                                                                                                                                                                                                                                                                                                                                                                                                                                                                                                      
abc0e3cee3104d0126fe4b993b25a601.torrent (51.63 KB, 下载次数: 0)

回复

使用道具 举报

小黑屋|百度云资源论坛 ( 闽ICP备16005822号-1 )

本网站所有资源来自网络,如无意中侵犯了您的权益,请发邮件至 [email protected],立即清除相关链接

GMT+8, 2019-9-20 03:54 , Processed in 0.087409 second(s), 19 queries .

Powered by Discuz! X3.2

© 2001-2013 Comsenz Inc.

快速回复 返回顶部 返回列表