百度云资源论坛

 找回密码
 立即注册
搜索
热搜: 百度云资源
开启左侧

丧尸未逝 The.Dead.Dont.Die.2019.720p.BluRay.x264.DTS-FGT 5.12GB

[复制链接]




帖子完整标题:丧尸未逝 The.Dead.Dont.Die.2019.720p.BluRay.x264.DTS-FGT 5.12GB





◎译  名 丧尸未逝 / Kill The Head / 丧尸死不完 / 死无可死(港) / 死者不死
◎片  名 The Dead Don't Die
◎年  代 2019
◎产  地 美国
◎类  别 喜剧 / 恐怖
◎语  言 英语
◎上映日期 2019-05-14(戛纳电影节) / 2019-06-14(美国)
◎IMDb评分  5.9/10 from 11426 users
◎片  长 103分钟(戛纳电影节)
◎导  演 吉姆·贾木许 Jim Jarmusch
◎编  剧 吉姆·贾木许 Jim Jarmusch
◎主  演 科洛·塞维尼 Chlo? Sevigny
       亚当·德赖弗 Adam Driver
       蒂尔达·斯文顿 Tilda Swinton
       史蒂夫·布西密 Steve Buscemi
       奥斯汀·巴特勒 Austin Butler
       比尔·默瑞 Bill Murray
       卡赖伯·兰德里·琼斯 Caleb Landry Jones
       赛琳娜·戈麦斯 Selena Gomez
       卡罗尔·凯恩 Carol Kane
       汤姆·威兹 Tom Waits
       罗茜·佩雷兹 Rosie Perez
       丹尼·格洛弗 Danny Glover
       罗伯特·菲茨杰拉德·迪格斯 RZA
       伊基·波普 Iggy Pop
       罗莎尔·卡农 Rosal Colon
       萨拉·戴维 Sara Driver


◎标  签 丧尸 | 美国 | 吉姆·贾木许 | 喜剧 | 恐怖 | 2019 | 丧尸片 | 蒂尔达·斯文顿

◎简  介  

  电影故事发生在寂静的小镇森特维尔,有些事情不太对劲。月亮又大又低地挂在天空中,白天的时间变得不可预测,动物开始表现出不寻常的行为。没人知道原因。新闻报道是可怕的,科学家们对此感到担忧。但没有人预见到,人们很快就会迎来最奇怪、最危险的后果:死人不会死——他们从坟墓里爬出来,野蛮地攻击活人,并大肆享用——镇上的居民必须为生存而战。

◎获奖情况  

  第72届戛纳电影节(2019)
  主竞赛单元 金棕榈奖(提名) 吉姆·贾木许
Video
ID                                       : 1
Format                                   : AVC
Format/Info                              : Advanced Video Codec
Format settings                          : CABAC / 4 Ref Frames
Format settings, CABAC                   : Yes
Format settings, Reference frames        : 4 frames
Codec ID                                 : V_MPEG4/ISO/AVC
Duration                                 : 1 h 44 min
Bit rate                                 : 5 500 kb/s
Width                                    : 1 280 pixels
Height                                   : 720 pixels
Display aspect ratio                     : 16:9
Frame rate mode                          : Constant
Frame rate                               : 23.976 (24000/1001) FPS
Color space                              : YUV
Chroma subsampling                       : 4:2:0
Bit depth                                : 8 bits
Scan type                                : Progressive
Bits/(Pixel*Frame)                       : 0.249
Stream size                              : 4.01 GiB (78%)
Title                                    : The.Dead.Dont.Die.2019.720p.BluRay.x264.DTS-FGT
Writing library                          : x264 core 148 r2795M aaa9aa8
Encoding settings                        : cabac=1 / ref=4 / deblock=1:-2:-2 / analyse=0x3:0x113 / me=umh / subme=9 / psy=1 / psy_rd=1.00:0.15 / mixed_ref=1 / me_range=16 / chroma_me=1 / trellis=2 / 8x8dct=1 / cqm=0 / deadzone=21,11 / fast_pskip=1 / chroma_qp_offset=-3 / threads=72 / lookahead_threads=3 / sliced_threads=0 / nr=0 / decimate=1 / interlaced=0 / bluray_compat=0 / constrained_intra=0 / bframes=3 / b_pyramid=2 / b_adapt=1 / b_bias=0 / direct=3 / weightb=1 / open_gop=0 / weightp=2 / keyint=250 / keyint_min=25 / scenecut=40 / intra_refresh=0 / rc_lookahead=50 / rc=2pass / mbtree=1 / bitrate=5500 / ratetol=1.0 / qcomp=0.60 / qpmin=0 / qpmax=69 / qpstep=4 / cplxblur=20.0 / qblur=0.5 / vbv_maxrate=31250 / vbv_bufsize=31250 / nal_hrd=none / filler=0 / ip_ratio=1.40 / aq=1:1.00
Language                                 : English
Default                                  : Yes
Forced                                   : No

Audio
ID                                       : 2
Format                                   : DTS
Format/Info                              : Digital Theater Systems
Codec ID                                 : A_DTS
Duration                                 : 1 h 44 min
Bit rate mode                            : Constant
Bit rate                                 : 1 509 kb/s
Channel(s)                               : 6 channels
Channel layout                           : C L R Ls Rs LFE
Sampling rate                            : 48.0 kHz
Frame rate                               : 93.750 FPS (512 SPF)
Bit depth                                : 24 bits
Compression mode                         : Lossy
Stream size                              : 1.10 GiB (22%)
Title                                    : The.Dead.Dont.Die.2019.720p.BluRay.x264.DTS-FGT
Language                                 : English
Default                                  : Yes
Forced                                   : No

Text
ID                                       : 3
Format                                   : UTF-8
Codec ID                                 : S_TEXT/UTF8
Codec ID/Info                            : UTF-8 Plain Text
Duration                                 : 1 h 41 min
Bit rate                                 : 43 b/s
Count of elements                        : 1142
Stream size                              : 32.3 KiB (0%)
Language                                 : English
Default                                  : Yes
Forced                                   : No

Menu
00:00:00.000                             : en:Chapter 01
00:05:01.467                             : en:Chapter 02
00:10:04.437                             : en:Chapter 03
00:17:04.148                             : en:Chapter 04
00:22:28.847                             : en:Chapter 05
00:28:04.724                             : en:Chapter 06
00:31:36.269                             : en:Chapter 07
00:37:56.649                             : en:Chapter 08
00:43:22.641                             : en:Chapter 09
00:50:53.050                             : en:Chapter 10
00:57:04.504                             : en:Chapter 11
01:01:16.964                             : en:Chapter 12
01:06:41.580                             : en:Chapter 13
01:09:20.823                             : en:Chapter 14
01:14:47.774                             : en:Chapter 15
01:18:47.681                             : en:Chapter 16
01:23:50.442                             : en:Chapter 17
01:28:10.201                             : en:Chapter 18
01:33:15.756                             : en:Chapter 19
01:39:10.945                             : en:Chapter 20




                                                                                                                                                                                                        
                                                                                                                                                                                                                                                                                                                                                                                                                                                                                                                                                                                                                                                                                                                                                                                                                                                      
34ebda9b7ab0187261863b60fce19148.torrent (26.1 KB, 下载次数: 0)

回复

使用道具 举报

小黑屋|百度云资源论坛 ( 闽ICP备16005822号-1 )

本网站所有资源来自网络,如无意中侵犯了您的权益,请发邮件至 [email protected],立即清除相关链接

GMT+8, 2019-9-16 11:11 , Processed in 0.068044 second(s), 19 queries .

Powered by Discuz! X3.2

© 2001-2013 Comsenz Inc.

快速回复 返回顶部 返回列表