百度云资源论坛

 找回密码
 立即注册
搜索
热搜: 百度云资源
开启左侧

皇家爱情童话故事 Royally.Ever.After.2018.720p.BluRay.x264-GETiT 3.28GB

[复制链接]
百度云资源 发表于 2019-9-11 09:41:48 | 显示全部楼层 |阅读模式




帖子完整标题:皇家爱情童话故事 Royally.Ever.After.2018.720p.BluRay.x264-GETiT 3.28GB





◎译  名 皇家爱情童话故事
◎片  名 Royally Ever After
◎年  代 2018
◎产  地 美国
◎类  别 喜剧 / 爱情
◎语  言 英语
◎上映日期 2018-05-19(美国)
◎IMDb评分  6.0/10 from 672 users
◎导  演 李·弗里德兰德 Lee Friedlander
◎编  剧 Aury Wallington
◎主  演 菲奥娜·嘉伯曼 Fiona Gubelmann
       托伦斯·库姆斯 Torrance Coombs
       Clodagh Moriarty


◎标  签 美国 | 爱情 | 浪漫 | hallmark | 123 | 芝加哥 | 纽约 | 华盛顿

◎简  介  

  Sara's dream of finding the perfect mate is realized when boyfriend Daniel proposes marriage, but there is one tiny hitch. It turns out he is the real-life prince of a small European monarchy, and his marriage requires the approval of his royal parents.
Video
ID                                       : 1
Format                                   : AVC
Format/Info                              : Advanced Video Codec
Format settings                          : CABAC / 5 Ref Frames
Format settings, CABAC                   : Yes
Format settings, Reference frames        : 5 frames
Codec ID                                 : V_MPEG4/ISO/AVC
Duration                                 : 1 h 23 min
Bit rate                                 : 5 257 kb/s
Width                                    : 1 280 pixels
Height                                   : 720 pixels
Display aspect ratio                     : 16:9
Frame rate mode                          : Constant
Frame rate                               : 25.000 FPS
Color space                              : YUV
Chroma subsampling                       : 4:2:0
Bit depth                                : 8 bits
Scan type                                : Progressive
Bits/(Pixel*Frame)                       : 0.228
Stream size                              : 3.05 GiB (93%)
Writing library                          : x264 core 157 r2969 d4099dd
Encoding settings                        : cabac=1 / ref=5 / deblock=1:0:0 / analyse=0x3:0x133 / me=umh / subme=7 / psy=1 / psy_rd=1.00:0.00 / mixed_ref=1 / me_range=16 / chroma_me=1 / trellis=2 / 8x8dct=1 / cqm=0 / deadzone=21,11 / fast_pskip=0 / chroma_qp_offset=-2 / threads=16 / lookahead_threads=2 / sliced_threads=0 / nr=0 / decimate=1 / interlaced=0 / bluray_compat=0 / constrained_intra=0 / bframes=3 / b_pyramid=2 / b_adapt=1 / b_bias=0 / direct=3 / weightb=1 / open_gop=0 / weightp=2 / keyint=250 / keyint_min=25 / scenecut=40 / intra_refresh=0 / rc_lookahead=50 / rc=2pass / mbtree=1 / bitrate=5257 / ratetol=1.0 / qcomp=0.60 / qpmin=0 / qpmax=69 / qpstep=4 / cplxblur=20.0 / qblur=0.5 / ip_ratio=1.40 / aq=1:1.00
Language                                 : English
Default                                  : Yes
Forced                                   : No

Audio
ID                                       : 2
Format                                   : AC-3
Format/Info                              : Audio Coding 3
Commercial name                          : Dolby Digital
Codec ID                                 : A_AC3
Duration                                 : 1 h 23 min
Bit rate mode                            : Constant
Bit rate                                 : 384 kb/s
Channel(s)                               : 6 channels
Channel layout                           : L R C LFE Ls Rs
Sampling rate                            : 48.0 kHz
Frame rate                               : 31.250 FPS (1536 SPF)
Bit depth                                : 16 bits
Compression mode                         : Lossy
Stream size                              : 228 MiB (7%)
Title                                    : AC3
Language                                 : English
Service kind                             : Complete Main
Default                                  : Yes
Forced                                   : No

Menu
00:00:00.000                             : en:00:00:00.000
00:19:55.280                             : en:00:19:55.280
00:35:45.040                             : en:00:35:45.040
00:49:08.320                             : en:00:49:08.320
01:04:43.680                             : en:01:04:43.680
01:22:38.680                             : en:01:22:38.680




                                                                                                                                                                                                        
                                                                                                                                                                                                                                                                                                                                                                                                                                                                                                                                                                                                                                                                                                                                                                                                                                                      
0539a1e0439eb3a8d4d4ef51f03dec67.torrent (33.42 KB, 下载次数: 0)

回复

使用道具 举报

小黑屋|百度云资源论坛 ( 闽ICP备16005822号-1 )

本网站所有资源来自网络,如无意中侵犯了您的权益,请发邮件至 [email protected],立即清除相关链接

GMT+8, 2019-9-20 03:55 , Processed in 0.070637 second(s), 19 queries .

Powered by Discuz! X3.2

© 2001-2013 Comsenz Inc.

快速回复 返回顶部 返回列表