百度云资源论坛

 找回密码
 立即注册
搜索
热搜: 百度云资源
开启左侧

秀后人生 After.The.Reality.2016.720p.BluRay.x264-GETiT 3.28GB

[复制链接]




帖子完整标题:秀后人生 After.The.Reality.2016.720p.BluRay.x264-GETiT 3.28GB





◎译  名 秀后人生
◎片  名 After the Reality
◎年  代 2015
◎产  地 美国
◎类  别 剧情 / 喜剧 / 家庭
◎语  言 英语
◎IMDb评分  4.3/10 from 295 users
◎片  长 85分钟
◎导  演 David Anderson
◎编  剧 David Anderson
◎主  演 马修·莫里森 Matthew Morrison
       萨拉·乔克 Sarah Chalke
       乔恩·多尔 Jon Dore
       劳拉·贝尔·邦迪 Laura Bell Bundy
       胡安·巴勃罗·迪·帕斯 Juan Pablo Di Pace
       艾赛亚·穆斯塔法 Isaiah Mustafa
       Tony Cavalero


◎标  签 美国 | 大学

◎简  介  

  由于父亲的突然去世,一个“单身”式的真人秀参赛者的生活突然陷入了混乱,因此他过早地退出真人秀舞台,重新和他的妹妹还有她身后的家庭建立起了联系。
Video
ID                                       : 1
Format                                   : AVC
Format/Info                              : Advanced Video Codec
Format settings                          : CABAC / 5 Ref Frames
Format settings, CABAC                   : Yes
Format settings, Reference frames        : 5 frames
Codec ID                                 : V_MPEG4/ISO/AVC
Duration                                 : 1 h 27 min
Bit rate                                 : 4 969 kb/s
Width                                    : 1 280 pixels
Height                                   : 688 pixels
Display aspect ratio                     : 1.85:1
Frame rate mode                          : Constant
Frame rate                               : 23.976 (24000/1001) FPS
Color space                              : YUV
Chroma subsampling                       : 4:2:0
Bit depth                                : 8 bits
Scan type                                : Progressive
Bits/(Pixel*Frame)                       : 0.235
Stream size                              : 3.04 GiB (93%)
Writing library                          : x264 core 157 r2969 d4099dd
Encoding settings                        : cabac=1 / ref=5 / deblock=1:0:0 / analyse=0x3:0x133 / me=umh / subme=7 / psy=1 / psy_rd=1.00:0.00 / mixed_ref=1 / me_range=16 / chroma_me=1 / trellis=2 / 8x8dct=1 / cqm=0 / deadzone=21,11 / fast_pskip=0 / chroma_qp_offset=-2 / threads=12 / lookahead_threads=2 / sliced_threads=0 / nr=0 / decimate=1 / interlaced=0 / bluray_compat=0 / constrained_intra=0 / bframes=3 / b_pyramid=2 / b_adapt=1 / b_bias=0 / direct=3 / weightb=1 / open_gop=0 / weightp=2 / keyint=250 / keyint_min=23 / scenecut=40 / intra_refresh=0 / rc_lookahead=50 / rc=2pass / mbtree=1 / bitrate=4969 / ratetol=1.0 / qcomp=0.60 / qpmin=0 / qpmax=69 / qpstep=4 / cplxblur=20.0 / qblur=0.5 / ip_ratio=1.40 / aq=1:1.00
Language                                 : English
Default                                  : Yes
Forced                                   : No

Audio
ID                                       : 2
Format                                   : AC-3
Format/Info                              : Audio Coding 3
Commercial name                          : Dolby Digital
Codec ID                                 : A_AC3
Duration                                 : 1 h 27 min
Bit rate mode                            : Constant
Bit rate                                 : 384 kb/s
Channel(s)                               : 6 channels
Channel layout                           : L R C LFE Ls Rs
Sampling rate                            : 48.0 kHz
Frame rate                               : 31.250 FPS (1536 SPF)
Bit depth                                : 16 bits
Compression mode                         : Lossy
Stream size                              : 241 MiB (7%)
Title                                    : ac3
Language                                 : English
Service kind                             : Complete Main
Default                                  : Yes
Forced                                   : No

Menu
00:00:00.000                             : en:00:00:00.000
00:02:35.739                             : en:00:02:35.739
00:20:16.298                             : en:00:20:16.298
00:38:47.242                             : en:00:38:47.242
00:54:37.608                             : en:00:54:37.608
01:11:55.061                             : en:01:11:55.061
01:25:05.642                             : en:01:25:05.642




                                                                                                                                                                                                        
                                                                                                                                                                                                                                                                                                                                                                                                                                                                                                                                                                                                                                                                                                                                                                                                                                                      
bab7cb9b51539e5a79f8e4e60f67edd6.torrent (33.5 KB, 下载次数: 0)

回复

使用道具 举报

小黑屋|百度云资源论坛 ( 闽ICP备16005822号-1 )

本网站所有资源来自网络,如无意中侵犯了您的权益,请发邮件至 [email protected],立即清除相关链接

GMT+8, 2019-9-16 11:13 , Processed in 0.060796 second(s), 19 queries .

Powered by Discuz! X3.2

© 2001-2013 Comsenz Inc.

快速回复 返回顶部 返回列表