百度云资源论坛

 找回密码
 立即注册
搜索
热搜: 百度云资源
开启左侧

女巫/妖巫传说 The.Witches.1990.720p.BluRay.x264-SiNNERS 4.38GB

[复制链接]
百度云资源 发表于 2019-9-11 09:41:51 | 显示全部楼层 |阅读模式




帖子完整标题:女巫/妖巫传说 The.Witches.1990.720p.BluRay.x264-SiNNERS 4.38GB





◎译  名 女巫 / 妖巫传说
◎片  名 The Witches
◎年  代 1990
◎产  地 英国 / 美国
◎类  别 恐怖 / 奇幻
◎语  言 英语
◎上映日期 1990-05-25
◎IMDb评分  6.8/10 from 32295 users
◎片  长 91 分钟
◎导  演 尼古拉斯·罗伊格 Nicolas Roeg
◎编  剧 罗尔德·达尔 Roald Dahl / 艾伦·斯科特 Allan Scott
◎主  演 Anjelica Huston
       Mai Zetterling
       Jasen Fisher
       Jane Horrocks
       Brenda Blethyn


◎标  签 女巫 | 英国 | 魔幻 | 巫婆 | 奇幻 | 英国电影 | 1990 | 1990s

◎简  介  

  一位新近成為孤兒的九歲男孩跟著奶奶來到英格蘭,當祖孫倆在一間旅館過夜時,卻不幸碰撞見一場由高階女巫(安潔莉卡休斯頓,「現代教父」)領導的巫婆集會,聽到她們陰謀計畫將全英國的小孩變成老鼠!男孩雖然被女巫變成一隻老鼠,卻還是努力設法要阻止這些巫婆的邪惡計謀得逞;這部既有趣又嚇人的現代童話是改編自羅德戴爾(Roald Dahl)的知名作品,亦是"大青蛙"創始人吉姆韓森(Jim Henson)最後一部擔任製作的電影。
Video
ID                                       : 1
Format                                   : AVC
Format/Info                              : Advanced Video Codec
Format settings                          : CABAC / 9 Ref Frames
Format settings, CABAC                   : Yes
Format settings, Reference frames        : 9 frames
Codec ID                                 : V_MPEG4/ISO/AVC
Duration                                 : 1 h 31 min
Bit rate                                 : 5 325 kb/s
Width                                    : 1 280 pixels
Height                                   : 688 pixels
Display aspect ratio                     : 1.85:1
Frame rate mode                          : Constant
Frame rate                               : 23.976 (24000/1001) FPS
Color space                              : YUV
Chroma subsampling                       : 4:2:0
Bit depth                                : 8 bits
Scan type                                : Progressive
Bits/(Pixel*Frame)                       : 0.252
Stream size                              : 3.40 GiB (78%)
Writing library                          : x264 core 158 r2984 3759fcb
Encoding settings                        : cabac=1 / ref=9 / deblock=1:-3:-3 / analyse=0x3:0x113 / me=umh / subme=8 / psy=1 / psy_rd=1.00:0.00 / mixed_ref=1 / me_range=16 / chroma_me=1 / trellis=2 / 8x8dct=1 / cqm=0 / deadzone=21,11 / fast_pskip=0 / chroma_qp_offset=-2 / threads=21 / lookahead_threads=3 / sliced_threads=0 / nr=0 / decimate=1 / interlaced=0 / bluray_compat=0 / constrained_intra=0 / bframes=3 / b_pyramid=2 / b_adapt=1 / b_bias=0 / direct=1 / weightb=1 / open_gop=0 / weightp=2 / keyint=250 / keyint_min=23 / scenecut=40 / intra_refresh=0 / rc_lookahead=40 / rc=2pass / mbtree=1 / bitrate=5325 / ratetol=1.0 / qcomp=0.60 / qpmin=0 / qpmax=69 / qpstep=4 / cplxblur=20.0 / qblur=0.5 / ip_ratio=1.40 / aq=1:1.00
Language                                 : English
Default                                  : Yes
Forced                                   : No

Audio
ID                                       : 2
Format                                   : DTS
Format/Info                              : Digital Theater Systems
Codec ID                                 : A_DTS
Duration                                 : 1 h 31 min
Bit rate mode                            : Constant
Bit rate                                 : 1 509 kb/s
Channel(s)                               : 2 channels
Channel layout                           : L R
Sampling rate                            : 48.0 kHz
Frame rate                               : 93.750 FPS (512 SPF)
Bit depth                                : 24 bits
Compression mode                         : Lossy
Stream size                              : 988 MiB (22%)
Language                                 : English
Default                                  : Yes
Forced                                   : No

Text #1
ID                                       : 3
Format                                   : UTF-8
Codec ID                                 : S_TEXT/UTF8
Codec ID/Info                            : UTF-8 Plain Text
Duration                                 : 1 h 26 min
Bit rate                                 : 59 b/s
Count of elements                        : 1485
Stream size                              : 37.8 KiB (0%)
Language                                 : English
Default                                  : No
Forced                                   : No

Text #2
ID                                       : 4
Format                                   : UTF-8
Codec ID                                 : S_TEXT/UTF8
Codec ID/Info                            : UTF-8 Plain Text
Duration                                 : 1 h 28 min
Bit rate                                 : 63 b/s
Count of elements                        : 1660
Stream size                              : 41.3 KiB (0%)
Title                                    : SDH
Language                                 : English
Default                                  : No
Forced                                   : No

Menu
00:00:00.000                             : en:00:00:00.000
00:02:11.006                             : en:00:02:11.006
00:04:44.618                             : en:00:04:44.618
00:08:47.026                             : en:00:08:47.026
00:11:40.283                             : en:00:11:40.283
00:13:54.500                             : en:00:13:54.500
00:16:58.351                             : en:00:16:58.351
00:19:14.612                             : en:00:19:14.612
00:21:52.645                             : en:00:21:52.645
00:25:52.217                             : en:00:25:52.217
00:28:56.777                             : en:00:28:56.777
00:32:44.129                             : en:00:32:44.129
00:33:55.325                             : en:00:33:55.325
00:38:28.389                             : en:00:38:28.389
00:42:47.398                             : en:00:42:47.398
00:45:20.468                             : en:00:45:20.468
00:49:54.658                             : en:00:49:54.658
00:54:10.372                             : en:00:54:10.372
00:57:29.071                             : en:00:57:29.071
00:59:48.001                             : en:00:59:48.001
01:05:06.194                             : en:01:05:06.194
01:07:26.459                             : en:01:07:26.459
01:09:02.180                             : en:01:09:02.180
01:13:01.877                             : en:01:13:01.877
01:14:46.816                             : en:01:14:46.816
01:16:10.357                             : en:01:16:10.357
01:19:24.510                             : en:01:19:24.510
01:23:38.180                             : en:01:23:38.180
01:25:55.067                             : en:01:25:55.067
01:29:22.566                             : en:01:29:22.566




                                                                                                                                                                                                        
                                                                                                                                                                                                                                                                                                                                                                                                                                                                                                                                                                                                                                                                                                                                                                                                                                                      
417f9e18813f467554fbd53f7812d258.torrent (44.54 KB, 下载次数: 0)

回复

使用道具 举报

小黑屋|百度云资源论坛 ( 闽ICP备16005822号-1 )

本网站所有资源来自网络,如无意中侵犯了您的权益,请发邮件至 [email protected],立即清除相关链接

GMT+8, 2019-9-20 03:54 , Processed in 0.073312 second(s), 19 queries .

Powered by Discuz! X3.2

© 2001-2013 Comsenz Inc.

快速回复 返回顶部 返回列表