百度云资源论坛

 找回密码
 立即注册
搜索
热搜: 百度云资源
开启左侧

瘦子/瘦人 The.Thin.Man.1934.720p.BluRay.x264-SiNNERS 4.38GB

[复制链接]
百度云资源 发表于 2019-9-11 09:41:53 | 显示全部楼层 |阅读模式




帖子完整标题:瘦子/瘦人 The.Thin.Man.1934.720p.BluRay.x264-SiNNERS 4.38GB





◎译  名 瘦子 / 瘦人 / 要命的瘦子
◎片  名 The Thin Man
◎年  代 1934
◎产  地 美国
◎类  别 喜剧 / 犯罪 / 黑色电影
◎语  言 英语
◎上映日期 1934-05-25
◎IMDb评分  8.1/10 from 24301 users
◎导  演 W.S.范戴克 W.S. Van Dyke
◎编  剧 艾伯特·哈克特 Albert Hackett / 弗朗西丝·古德里奇 Frances Goodrich / 达希尔·哈米特 Dashiell Hammett
◎主  演 威廉·鲍威尔 William Powell
       玛娜·洛伊 Myrna Loy
       莫琳·奥沙利文 Maureen O'Sullivan
       纳特·彭德尔顿 Nat Pendleton
       Minna Gombell
       波特·霍尔 Porter Hall
       亨利·沃兹沃思 Henry Wadsworth
       威廉·亨利 William Henry
       Harold Huber
       恺撒·罗摩洛 Cesar Romero
       娜塔莉·穆尔黑德 Natalie Moorhead
       爱德华·布罗菲 Edward Brophy
       Edward Ellis
       Cyril Thornton
       Will Aubrey
       William Augustin
       波莉·贝利 Polly Bailey
       Arthur Belasco
       Brooks Benedict
       Tui Bow
       Raymond Brown
       Ruth Channing
       Jack Cheatham
       Clay Clement
       Nick Copeland
       Pat Flaherty
       达格拉斯·福雷 Douglas Fowley
       Christian J. Frank
       Kenneth Gibson
       Dick Gordon
       克莱顿·黑尔 Creighton Hale
       Sherry Hall
       Edward Hearn
       Robert Homans
       Thomas E. Jackson
       Sydney Jarvis
       Tiny Jones
       肯纳G.肯普 Kenner G. Kemp
       沃尔特·朗 Walter Long
       Fred Malatesta
       Hans-Joachim Moebis
       威廉·H·奥布莱恩 William H. O'Brien
       弗兰克·奥康纳 Frank O'Connor
       Henry Otho
       Garry Owen
       李·费尔普斯 Lee Phelps
       Alexander Pollard
       Albert Pollet
       Bob Reeves
       伯特·罗奇 Bert Roach
       罗尔夫·塞丹 Rolfe Sedan
       格特鲁德·肖特 Gertrude Short
       Lee Shumway
       Pietro Sosso
       Ben Taggart
       Phil Tead
       George Templeton
       哈利·坦布鲁克 Harry Tenbrook
       Huey White
       李奥·怀特 Leo White
       查尔斯·威廉姆斯 Charles Williams


◎标  签 美国 | 悬疑 | 喜剧 | 1930s | 犯罪 | 美国电影 | 1934 | 经典

◎简  介  

  Nick和Nora 这对搞笑侦探夫妻档总是连手出击调查案件。这回他们要着手的是一位发明家失踪的案子,要找出为何会失踪,且失踪到哪里去了……?
  
    相当成功地将喜剧和悬疑元素交融在一起。William Powell和Myrna Loy 饰演的夫妻档,是影史上第一对塑造成功的屏幕情侣组合!本片导演就是影坛上有『一次OK』之封号的 W.S. Van Dyke,本片他只花了两礼拜就拍摄完毕!由华人黄宗沾担纲摄影指导。本片独有的喜剧悬疑风,也成往后这类型电影的祖师爷。Albert Hackett和Frances Goodrich 根据 Dashiell Hammett 的小说改编成剧本。后来还拍摄了五部续集。

◎获奖情况  

  第7届奥斯卡金像奖(1935)
  最佳影片(提名)
  最佳导演(提名) W.S.范戴克
  最佳男主角(提名) 威廉·鲍威尔
  最佳改编剧本(提名) 艾伯特·哈克特 / 弗朗西丝·古德里奇
Video
ID                                       : 1
Format                                   : AVC
Format/Info                              : Advanced Video Codec
Format settings                          : CABAC / 9 Ref Frames
Format settings, CABAC                   : Yes
Format settings, Reference frames        : 9 frames
Codec ID                                 : V_MPEG4/ISO/AVC
Duration                                 : 1 h 30 min
Bit rate                                 : 5 375 kb/s
Width                                    : 992 pixels
Height                                   : 720 pixels
Display aspect ratio                     : 1.378
Frame rate mode                          : Constant
Frame rate                               : 23.976 (24000/1001) FPS
Color space                              : YUV
Chroma subsampling                       : 4:2:0
Bit depth                                : 8 bits
Scan type                                : Progressive
Bits/(Pixel*Frame)                       : 0.314
Stream size                              : 3.41 GiB (78%)
Writing library                          : x264 core 158 r2984 3759fcb
Encoding settings                        : cabac=1 / ref=9 / deblock=1:-3:-3 / analyse=0x3:0x113 / me=umh / subme=8 / psy=1 / psy_rd=1.00:0.00 / mixed_ref=1 / me_range=16 / chroma_me=1 / trellis=1 / 8x8dct=1 / cqm=0 / deadzone=21,11 / fast_pskip=0 / chroma_qp_offset=-2 / threads=22 / lookahead_threads=3 / sliced_threads=0 / nr=0 / decimate=1 / interlaced=0 / bluray_compat=0 / constrained_intra=0 / bframes=3 / b_pyramid=2 / b_adapt=1 / b_bias=0 / direct=1 / weightb=1 / open_gop=0 / weightp=2 / keyint=250 / keyint_min=23 / scenecut=40 / intra_refresh=0 / rc_lookahead=40 / rc=2pass / mbtree=1 / bitrate=5375 / ratetol=1.0 / qcomp=0.60 / qpmin=0 / qpmax=69 / qpstep=4 / cplxblur=20.0 / qblur=0.5 / ip_ratio=1.40 / aq=1:1.00
Language                                 : English
Default                                  : Yes
Forced                                   : No

Audio
ID                                       : 2
Format                                   : DTS
Format/Info                              : Digital Theater Systems
Codec ID                                 : A_DTS
Duration                                 : 1 h 30 min
Bit rate mode                            : Constant
Bit rate                                 : 1 509 kb/s
Channel(s)                               : 2 channels
Channel layout                           : L R
Sampling rate                            : 48.0 kHz
Frame rate                               : 93.750 FPS (512 SPF)
Bit depth                                : 24 bits
Compression mode                         : Lossy
Stream size                              : 981 MiB (22%)
Language                                 : English
Default                                  : Yes
Forced                                   : No

Text #1
ID                                       : 3
Format                                   : UTF-8
Codec ID                                 : S_TEXT/UTF8
Codec ID/Info                            : UTF-8 Plain Text
Duration                                 : 1 h 29 min
Bit rate                                 : 92 b/s
Count of elements                        : 2160
Stream size                              : 60.1 KiB (0%)
Language                                 : English
Default                                  : No
Forced                                   : No

Text #2
ID                                       : 4
Format                                   : UTF-8
Codec ID                                 : S_TEXT/UTF8
Codec ID/Info                            : UTF-8 Plain Text
Duration                                 : 1 h 29 min
Bit rate                                 : 93 b/s
Count of elements                        : 2232
Stream size                              : 61.4 KiB (0%)
Title                                    : SDH
Language                                 : English
Default                                  : No
Forced                                   : No

Menu
00:00:00.000                             : en:00:00:00.000
00:00:50.050                             : en:00:00:50.050
00:04:34.483                             : en:00:04:34.483
00:07:03.882                             : en:00:07:03.882
00:10:36.094                             : en:00:10:36.094
00:13:09.956                             : en:00:13:09.956
00:15:47.905                             : en:00:15:47.905
00:20:50.541                             : en:00:20:50.541
00:24:47.361                             : en:00:24:47.361
00:27:49.585                             : en:00:27:49.585
00:31:22.672                             : en:00:31:22.672
00:36:20.678                             : en:00:36:20.678
00:37:47.390                             : en:00:37:47.390
00:41:45.670                             : en:00:41:45.670
00:45:07.204                             : en:00:45:07.204
00:47:21.922                             : en:00:47:21.922
00:50:08.422                             : en:00:50:08.422
00:52:13.839                             : en:00:52:13.839
00:56:43.233                             : en:00:56:43.233
01:00:52.732                             : en:01:00:52.732
01:05:40.728                             : en:01:05:40.728
01:09:05.558                             : en:01:09:05.558
01:12:47.446                             : en:01:12:47.446
01:15:51.922                             : en:01:15:51.922
01:20:01.296                             : en:01:20:01.296
01:23:13.447                             : en:01:23:13.447
01:26:33.480                             : en:01:26:33.480
01:28:50.116                             : en:01:28:50.116




                                                                                                                                                                                                        
                                                                                                                                                                                                                                                                                                                                                                                                                                                                                                                                                                                                                                                                                                                                                                                                                                                      
8aea102f131859935b737cc43ba5a84b.torrent (44.59 KB, 下载次数: 0)

回复

使用道具 举报

小黑屋|百度云资源论坛 ( 闽ICP备16005822号-1 )

本网站所有资源来自网络,如无意中侵犯了您的权益,请发邮件至 [email protected],立即清除相关链接

GMT+8, 2019-9-20 03:56 , Processed in 0.076570 second(s), 19 queries .

Powered by Discuz! X3.2

© 2001-2013 Comsenz Inc.

快速回复 返回顶部 返回列表