百度云资源论坛

 找回密码
 立即注册
搜索
热搜: 百度云资源
开启左侧

杀戮都市2 Gantz.2.Perfect.Answer.2011.iNTERNAL.720p.BluRay.x264-REGRET 7....

[复制链接]
百度云资源 发表于 2019-9-11 09:41:54 | 显示全部楼层 |阅读模式




帖子完整标题:杀戮都市2 Gantz.2.Perfect.Answer.2011.iNTERNAL.720p.BluRay.x264-REGRET 7.65GB





◎译  名 杀戮都市2
◎片  名 GANTZ PERFECT ANSWER
◎年  代 2011
◎产  地 日本
◎类  别 动作 / 科幻
◎语  言 日语
◎上映日期 2011-04-23(日本)
◎IMDb评分  6.3/10 from 3576 users
◎片  长 141分钟
◎导  演 佐藤信介 Shinsuke Sato
◎编  剧 渡边雄介 Y?suke Watanabe / 奥浩哉 Hiroya Oku
◎主  演 二宫和也 Kazunari Ninomiya
       松山研一 Ken'ichi Matsuyama
       吉高由里子 Yuriko Yoshitaka
       本乡奏多 Kanata Hong?
       夏菜 Natsuna
       绫野刚 G? Ayano
       水泽奈子 Nako Mizusawa
       千阪健介
       白石隼也 Shun'ya Shiraishi
       伊藤步 Ayumi Ito
       田口智朗 Tomorowo Taguchi
       山田孝之 Takayuki Yamada
       户田菜穗 Naho Toda


◎标  签 二宫和也 | 日本电影 | 日本 | 科幻 | 松山健一 | 2011 | 本乡奏多 | 电影

◎简  介  

  为了复活死去的好友加藤胜(松山健一 饰)以及其他逝者,玄野计(二宫和也 饰)与战友们5个月来不断与各种外星人作战,赢取更多的分数。在这一过程中,不断有新丁加入Gantz,而新丁似乎又对这个看似陌生的异类世界有着莫名的熟悉感。某天,本应死去的加藤突然出现在现实世界,这令玄野等人大为不解。而之后的战斗也显现出了诸多奇怪之处,比如在与黑衣星人的战斗中,敌我双方竟然同时出现在人满为患的地铁车厢内,以致于血流成河,引起巨大伤亡。现实与虚幻的界限开始模糊,来势汹汹的外星人也准备向Gantz的总部发起最后的攻击……
  本片根据奥浩哉的同名漫画改编。
Video
ID                                       : 1
Format                                   : AVC
Format/Info                              : Advanced Video Codec
Format settings                          : CABAC / 5 Ref Frames
Format settings, CABAC                   : Yes
Format settings, Reference frames        : 5 frames
Codec ID                                 : V_MPEG4/ISO/AVC
Duration                                 : 2 h 21 min
Bit rate                                 : 4 700 kb/s
Width                                    : 1 280 pixels
Height                                   : 688 pixels
Display aspect ratio                     : 1.85:1
Frame rate mode                          : Constant
Frame rate                               : 23.976 (24000/1001) FPS
Color space                              : YUV
Chroma subsampling                       : 4:2:0
Bit depth                                : 8 bits
Scan type                                : Progressive
Bits/(Pixel*Frame)                       : 0.223
Stream size                              : 4.65 GiB (61%)
Writing library                          : x264 core 157 r2970 5493be8
Encoding settings                        : cabac=1 / ref=5 / deblock=1:-3:-3 / analyse=0x3:0x133 / me=umh / subme=9 / psy=1 / psy_rd=1.00:0.00 / mixed_ref=1 / me_range=16 / chroma_me=1 / trellis=2 / 8x8dct=1 / cqm=0 / deadzone=21,11 / fast_pskip=0 / chroma_qp_offset=-2 / threads=21 / lookahead_threads=1 / sliced_threads=0 / nr=0 / decimate=1 / interlaced=0 / bluray_compat=0 / constrained_intra=0 / bframes=3 / b_pyramid=2 / b_adapt=1 / b_bias=0 / direct=3 / weightb=1 / open_gop=0 / weightp=2 / keyint=240 / keyint_min=24 / scenecut=40 / intra_refresh=0 / rc_lookahead=50 / rc=2pass / mbtree=1 / bitrate=4700 / ratetol=1.0 / qcomp=0.60 / qpmin=0 / qpmax=69 / qpstep=4 / cplxblur=20.0 / qblur=0.5 / ip_ratio=1.40 / aq=1:1.00
Language                                 : English
Default                                  : Yes
Forced                                   : No

Audio #1
ID                                       : 2
Format                                   : DTS
Format/Info                              : Digital Theater Systems
Codec ID                                 : A_DTS
Duration                                 : 2 h 21 min
Bit rate mode                            : Constant
Bit rate                                 : 1 509 kb/s
Channel(s)                               : 6 channels
Channel layout                           : C L R Ls Rs LFE
Sampling rate                            : 48.0 kHz
Frame rate                               : 93.750 FPS (512 SPF)
Bit depth                                : 24 bits
Compression mode                         : Lossy
Stream size                              : 1.49 GiB (20%)
Language                                 : Japanese
Default                                  : Yes
Forced                                   : No

Audio #2
ID                                       : 3
Format                                   : DTS
Format/Info                              : Digital Theater Systems
Codec ID                                 : A_DTS
Duration                                 : 2 h 21 min
Bit rate mode                            : Constant
Bit rate                                 : 1 509 kb/s
Channel(s)                               : 6 channels
Channel layout                           : C L R Ls Rs LFE
Sampling rate                            : 48.0 kHz
Frame rate                               : 93.750 FPS (512 SPF)
Bit depth                                : 24 bits
Compression mode                         : Lossy
Stream size                              : 1.49 GiB (20%)
Language                                 : English
Default                                  : No
Forced                                   : No

Text #1
ID                                       : 4
Format                                   : UTF-8
Codec ID                                 : S_TEXT/UTF8
Codec ID/Info                            : UTF-8 Plain Text
Duration                                 : 2 h 21 min
Bit rate                                 : 21 b/s
Count of elements                        : 798
Stream size                              : 22.5 KiB (0%)
Title                                    : English
Language                                 : English
Default                                  : Yes
Forced                                   : Yes

Text #2
ID                                       : 5
Format                                   : UTF-8
Codec ID                                 : S_TEXT/UTF8
Codec ID/Info                            : UTF-8 Plain Text
Duration                                 : 2 h 20 min
Bit rate                                 : 3 b/s
Count of elements                        : 112
Stream size                              : 3.13 KiB (0%)
Title                                    : Forced subtitles for English audio
Language                                 : English
Default                                  : No
Forced                                   : No

Menu
00:00:00.000                             : en:00:00:00.000
00:02:37.199                             : en:00:02:37.199
00:09:39.996                             : en:00:09:39.996
00:15:27.009                             : en:00:15:27.009
00:22:49.910                             : en:00:22:49.910
00:29:45.117                             : en:00:29:45.117
00:40:05.820                             : en:00:40:05.820
00:47:14.040                             : en:00:47:14.040
00:50:37.201                             : en:00:50:37.201
00:58:09.361                             : en:00:58:09.361
01:07:23.248                             : en:01:07:23.248
01:15:48.878                             : en:01:15:48.878
01:23:47.940                             : en:01:23:47.940
01:35:11.623                             : en:01:35:11.623
01:40:08.085                             : en:01:40:08.085
01:49:02.953                             : en:01:49:02.953
01:57:25.455                             : en:01:57:25.455
02:08:28.701                             : en:02:08:28.701
02:16:46.698                             : en:02:16:46.698
02:21:29.481                             : en:02:21:29.481




                                                                                                                                                                                                        
                                                                                                                                                                                                                                                                                                                                                                                                                                                                                                                                                                                                                                                                                                                                                                                                                                                      
28647ae5a4ba065faba0ba23b1085ff1.torrent (39.13 KB, 下载次数: 0)

回复

使用道具 举报

小黑屋|百度云资源论坛 ( 闽ICP备16005822号-1 )

本网站所有资源来自网络,如无意中侵犯了您的权益,请发邮件至 [email protected],立即清除相关链接

GMT+8, 2019-9-20 03:53 , Processed in 0.072400 second(s), 19 queries .

Powered by Discuz! X3.2

© 2001-2013 Comsenz Inc.

快速回复 返回顶部 返回列表