百度云资源论坛

 找回密码
 立即注册
搜索
热搜: 百度云资源
开启左侧

精英出击/总司令 General.Commander.2019.720p.BluRay.x264-GUACAMOLE 3.28GB

[复制链接]
百度云资源 发表于 2019-9-11 09:41:55 | 显示全部楼层 |阅读模式




帖子完整标题:精英出击/总司令 General.Commander.2019.720p.BluRay.x264-GUACAMOLE 3.28GB





◎译  名 精英出击 / 总司令
◎片  名 General Commander
◎年  代 2019
◎产  地 英国 / 匈牙利 / 菲律宾
◎类  别 动作 / 犯罪
◎语  言 英语
◎上映日期 2019-05-28(美国)
◎IMDb评分  3.9/10 from 269 users
◎片  长 81分钟
◎导  演 Philippe Martinez
◎编  剧 Philippe Martinez / Lisa Gabriel / Megan Brown
◎主  演 史蒂文·席格 Steven Seagal
       索尼亚·考琳 Sonia Couling
       Bryon Gibson
       Mica Javier
       Soraya Torrens
       Jai Day
       Megan Brown
       Chris Pasone
       Billy Ray
       罗恩·斯穆安伯格 Ron Smoorenburg
       Valerio Zechini


◎标  签 2018 | 英国 | 电视剧 | 犯罪 | 未看 | 动作 | 剧情

◎简  介  

  本剧讲述了GRS特工杰克?亚历山大(史蒂文?席格 Steven Seagal 饰)在一名香港富翁的资助下,带领着他年轻的队员们打击最为险恶的罪犯的故事。
Video
ID                                       : 1
Format                                   : AVC
Format/Info                              : Advanced Video Codec
Format settings                          : CABAC / 5 Ref Frames
Format settings, CABAC                   : Yes
Format settings, Reference frames        : 5 frames
Codec ID                                 : V_MPEG4/ISO/AVC
Duration                                 : 1 h 25 min
Bit rate                                 : 4 824 kb/s
Width                                    : 1 280 pixels
Height                                   : 536 pixels
Display aspect ratio                     : 2.40:1
Frame rate mode                          : Constant
Frame rate                               : 23.976 (24000/1001) FPS
Color space                              : YUV
Chroma subsampling                       : 4:2:0
Bit depth                                : 8 bits
Scan type                                : Progressive
Bits/(Pixel*Frame)                       : 0.293
Stream size                              : 2.89 GiB (88%)
Writing library                          : x264 core 157 r2969 d4099dd
Encoding settings                        : cabac=1 / ref=5 / deblock=1:0:0 / analyse=0x3:0x113 / me=umh / subme=8 / psy=1 / psy_rd=1.00:0.00 / mixed_ref=1 / me_range=16 / chroma_me=1 / trellis=2 / 8x8dct=1 / cqm=0 / deadzone=21,11 / fast_pskip=0 / chroma_qp_offset=-2 / threads=17 / lookahead_threads=2 / sliced_threads=0 / nr=0 / decimate=1 / interlaced=0 / bluray_compat=0 / constrained_intra=0 / bframes=3 / b_pyramid=2 / b_adapt=1 / b_bias=0 / direct=1 / weightb=1 / open_gop=0 / weightp=2 / keyint=250 / keyint_min=23 / scenecut=40 / intra_refresh=0 / rc_lookahead=50 / rc=2pass / mbtree=1 / bitrate=4824 / ratetol=1.0 / qcomp=0.60 / qpmin=0 / qpmax=69 / qpstep=4 / cplxblur=20.0 / qblur=0.5 / ip_ratio=1.40 / aq=1:1.00
Default                                  : Yes
Forced                                   : No

Audio
ID                                       : 2
Format                                   : AC-3
Format/Info                              : Audio Coding 3
Commercial name                          : Dolby Digital
Codec ID                                 : A_AC3
Duration                                 : 1 h 25 min
Bit rate mode                            : Constant
Bit rate                                 : 640 kb/s
Channel(s)                               : 6 channels
Channel layout                           : L R C LFE Ls Rs
Sampling rate                            : 48.0 kHz
Frame rate                               : 31.250 FPS (1536 SPF)
Bit depth                                : 16 bits
Compression mode                         : Lossy
Stream size                              : 392 MiB (12%)
Language                                 : English
Service kind                             : Complete Main
Default                                  : Yes
Forced                                   : No

Text
ID                                       : 3
Format                                   : UTF-8
Codec ID                                 : S_TEXT/UTF8
Codec ID/Info                            : UTF-8 Plain Text
Duration                                 : 1 h 8 min
Bit rate                                 : 7 b/s
Count of elements                        : 151
Stream size                              : 3.65 KiB (0%)
Language                                 : English
Default                                  : Yes
Forced                                   : Yes

Menu
00:00:00.000                             : en:00:00:00.000
00:13:48.828                             : en:00:13:48.828
00:25:04.586                             : en:00:25:04.586
00:36:05.789                             : en:00:36:05.789
00:47:17.334                             : en:00:47:17.334
00:58:56.867                             : en:00:58:56.867
01:11:05.052                             : en:01:11:05.052
01:22:28.777                             : en:01:22:28.777




                                                                                                                                                                                                        
                                                                                                                                                                                                                                                                                                                                                                                                                                                                                                                                                                                                                                                                                                                                                                                                                                                      
9f1112c1bb2c14da7b9021e87dc13f0b.torrent (33.57 KB, 下载次数: 0)

回复

使用道具 举报

小黑屋|百度云资源论坛 ( 闽ICP备16005822号-1 )

本网站所有资源来自网络,如无意中侵犯了您的权益,请发邮件至 [email protected],立即清除相关链接

GMT+8, 2019-9-20 03:55 , Processed in 0.066399 second(s), 19 queries .

Powered by Discuz! X3.2

© 2001-2013 Comsenz Inc.

快速回复 返回顶部 返回列表