百度云资源论坛

 找回密码
 立即注册
搜索
热搜: 百度云资源
开启左侧

金发女郎的爱情 Loves.of.a.Blonde.1965.720p.BluRay.x264-GHOULS 3.28GB

[复制链接]




帖子完整标题:金发女郎的爱情 Loves.of.a.Blonde.1965.720p.BluRay.x264-GHOULS 3.28GB





◎译  名 金发女郎的爱情 / A Blonde in Love / Loves of a Blonde / 金发女郎之恋
◎片  名 Lásky jedné plavovlásky
◎年  代 1965
◎产  地 捷克斯洛伐克
◎类  别 剧情 / 喜剧 / 爱情
◎语  言 捷克语
◎上映日期 1965-11-12
◎IMDb评分  7.6/10 from 6630 users
◎片  长 Argentina: 90 分钟
◎导  演 Milos Forman
◎编  剧 Milos Forman / Jaroslav Papousek
◎主  演 Hana Brejchová
       Vladimír Pucholt
       Vladimír Mensík
       Ivan Kheil
       Jirí Hruby


◎标  签 捷克 | 米洛斯·福尔曼 | 爱情 | 捷克电影 | MilosForman | 1960s | 1965 | CC

◎简  介  

  金发少女安杜拉(Hana Brejchová 饰)是一个在捷克某小镇制鞋厂工作的女孩,青春年少的她和同龄人一样渴望一段浪漫完美的爱情,但在这个男女比例严重失调的小镇上,她的愿望似乎有些渺茫。镇上的青年汤达(Antonín Blazejovsky 饰)展开爱情攻势,然而始终无法获得安杜拉的芳心。某天,偶然流浪于此的青年钢琴家米达(Vladimír Pucholt 饰)适时打开了安杜拉的心扉,她和这个来自布拉格乐团的文艺青年度过浪漫激情的一夜。从此以后,安杜拉对米达念念不忘,更决定启程前往布拉格寻找爱人。她要的是真挚的爱情,而米达却只当那是一夜的露水姻缘……
  本片荣获1967年丹麦波迪奖最佳欧洲影片奖、1967年芬兰胡西奖最佳外语片导演奖。

◎获奖情况  

  第39届奥斯卡金像奖(1967)
  最佳外语片(提名)

  第26届威尼斯电影节(1965)
  主竞赛单元 金狮奖 (提名) 米洛斯·福尔曼
Video
ID                                       : 1
Format                                   : AVC
Format/Info                              : Advanced Video Codec
Format settings                          : CABAC / 11 Ref Frames
Format settings, CABAC                   : Yes
Format settings, Reference frames        : 11 frames
Codec ID                                 : V_MPEG4/ISO/AVC
Duration                                 : 1 h 20 min
Bit rate                                 : 5 152 kb/s
Width                                    : 992 pixels
Height                                   : 720 pixels
Display aspect ratio                     : 1.378
Frame rate mode                          : Constant
Frame rate                               : 24.000 FPS
Color space                              : YUV
Chroma subsampling                       : 4:2:0
Bit depth                                : 8 bits
Scan type                                : Progressive
Bits/(Pixel*Frame)                       : 0.301
Stream size                              : 2.91 GiB (89%)
Writing library                          : x264 core 158 r2984 3759fcb
Encoding settings                        : cabac=1 / ref=11 / deblock=1:-3:-3 / analyse=0x3:0x133 / me=umh / subme=9 / psy=1 / psy_rd=1.00:0.00 / mixed_ref=1 / me_range=24 / chroma_me=1 / trellis=1 / 8x8dct=1 / cqm=0 / deadzone=21,11 / fast_pskip=0 / chroma_qp_offset=-2 / threads=22 / lookahead_threads=3 / sliced_threads=0 / nr=0 / decimate=1 / interlaced=0 / bluray_compat=0 / constrained_intra=0 / bframes=8 / b_pyramid=2 / b_adapt=2 / b_bias=0 / direct=3 / weightb=1 / open_gop=0 / weightp=2 / keyint=250 / keyint_min=24 / scenecut=40 / intra_refresh=0 / rc_lookahead=60 / rc=2pass / mbtree=1 / bitrate=5152 / ratetol=1.0 / qcomp=0.60 / qpmin=0 / qpmax=69 / qpstep=4 / cplxblur=20.0 / qblur=0.5 / vbv_maxrate=62500 / vbv_bufsize=78125 / nal_hrd=none / filler=0 / ip_ratio=1.40 / aq=1:1.00
Default                                  : Yes
Forced                                   : No

Audio
ID                                       : 2
Format                                   : FLAC
Format/Info                              : Free Lossless Audio Codec
Codec ID                                 : A_FLAC
Duration                                 : 1 h 20 min
Bit rate mode                            : Variable
Bit rate                                 : 648 kb/s
Channel(s)                               : 2 channels
Channel layout                           : L R
Sampling rate                            : 48.0 kHz
Frame rate                               : 10.417 FPS (4608 SPF)
Bit depth                                : 24 bits
Compression mode                         : Lossless
Stream size                              : 374 MiB (11%)
Writing library                          : Lavf58.20.100
Language                                 : Czech
Default                                  : Yes
Forced                                   : No

Text
ID                                       : 3
Format                                   : UTF-8
Codec ID                                 : S_TEXT/UTF8
Codec ID/Info                            : UTF-8 Plain Text
Duration                                 : 1 h 20 min
Bit rate                                 : 40 b/s
Count of elements                        : 695
Stream size                              : 23.8 KiB (0%)
Language                                 : English
Default                                  : Yes
Forced                                   : No

Menu
00:00:00.000                             : en:Chapter 01
00:05:39.667                             : en:Chapter 02
00:09:51.042                             : en:Chapter 03
00:19:56.333                             : en:Chapter 04
00:31:47.625                             : en:Chapter 05
00:39:21.875                             : en:Chapter 06
00:44:51.375                             : en:Chapter 07
00:52:14.417                             : en:Chapter 08
00:58:46.042                             : en:Chapter 09
01:04:53.542                             : en:Chapter 10
01:07:48.250                             : en:Chapter 11
01:14:15.458                             : en:Chapter 12




                                                                                                                                                                                                        
                                                                                                                                                                                                                                                                                                                                                                                                                                                                                                                                                                                                                                                                                                                                                                                                                                                      
bf5824206fa916bee747cb3015ec1a20.torrent (33.59 KB, 下载次数: 0)

回复

使用道具 举报

小黑屋|百度云资源论坛 ( 闽ICP备16005822号-1 )

本网站所有资源来自网络,如无意中侵犯了您的权益,请发邮件至 [email protected],立即清除相关链接

GMT+8, 2019-9-16 11:11 , Processed in 0.063415 second(s), 19 queries .

Powered by Discuz! X3.2

© 2001-2013 Comsenz Inc.

快速回复 返回顶部 返回列表