百度云资源论坛

 找回密码
 立即注册
搜索
热搜: 百度云资源
开启左侧

讹诈/敲诈 Blackmail.1929.Silent.Cut.720p.BluRay.x264-PSYCHD 4.37GB

[复制链接]
百度云电影 发表于 2019-9-11 09:41:58 | 显示全部楼层 |阅读模式





帖子完整标题:讹诈/敲诈 Blackmail.1929.Silent.Cut.720p.BluRay.x264-PSYCHD 4.37GB





◎译  名 讹诈 / 敲诈
◎片  名 Blackmail
◎年  代 1929
◎产  地 英国
◎类  别 惊悚 / 犯罪
◎语  言 英语
◎上映日期 1929-06-30(英国)
◎IMDb评分  7.0/10 from 8732 users
◎片  长 85分钟
◎导  演 阿尔弗雷德·希区柯克 Alfred Hitchcock
◎编  剧 查尔斯·贝内特 Charles Bennett / 阿尔弗雷德·希区柯克 Alfred Hitchcock / Benn W. Levy / 迈克尔·鲍威尔 Michael Powell
◎主  演 安妮·奥德拉 Anny Ondra
       萨拉·奥尔古德 Sara Allgood
       Charles Paton
       John Longden


◎标  签 希区柯克 | 英国 | 悬疑 | AlfredHitchcock | 默片 | 1929 | 犯罪 | Alfred_Hitchcock

◎简  介  

  希区柯克又一部经典的悬疑惊悚片,讲述女主角正当防卫杀人后被人敲诈的故事,影片拍摄到后期时老板要求希区柯克把它改成有声片,希区柯克对部分场景进行了重拍加入声音,影片也因此成为英国第一部有声片,因此时大部分影院无有声设备,因此以默片和有声片双版本上映。多年来音像制品中常见的都是有声片版,而其实默片版成就更高,对于如何处理画外音上,更有独门绝技。
Video
ID                                       : 1
Format                                   : AVC
Format/Info                              : Advanced Video Codec
Format settings                          : CABAC / 5 Ref Frames
Format settings, CABAC                   : Yes
Format settings, Reference frames        : 5 frames
Codec ID                                 : V_MPEG4/ISO/AVC
Duration                                 : 1 h 15 min
Bit rate                                 : 6 750 kb/s
Width                                    : 960 pixels
Height                                   : 720 pixels
Display aspect ratio                     : 4:3
Frame rate mode                          : Constant
Frame rate                               : 23.976 (24000/1001) FPS
Color space                              : YUV
Chroma subsampling                       : 4:2:0
Bit depth                                : 8 bits
Scan type                                : Progressive
Bits/(Pixel*Frame)                       : 0.407
Stream size                              : 3.49 GiB (80%)
Writing library                          : x264 core 158 r2984 3759fcb
Encoding settings                        : cabac=1 / ref=5 / deblock=1:-3:-3 / analyse=0x3:0x113 / me=umh / subme=8 / psy=1 / psy_rd=1.15:0.00 / mixed_ref=1 / me_range=24 / chroma_me=1 / trellis=2 / 8x8dct=1 / cqm=0 / deadzone=21,11 / fast_pskip=1 / chroma_qp_offset=-2 / threads=22 / lookahead_threads=3 / sliced_threads=0 / nr=0 / decimate=1 / interlaced=0 / bluray_compat=0 / constrained_intra=0 / bframes=3 / b_pyramid=2 / b_adapt=2 / b_bias=0 / direct=3 / weightb=1 / open_gop=0 / weightp=2 / keyint=240 / keyint_min=24 / scenecut=40 / intra_refresh=0 / rc_lookahead=50 / rc=2pass / mbtree=1 / bitrate=6750 / ratetol=1.0 / qcomp=0.60 / qpmin=0 / qpmax=69 / qpstep=4 / cplxblur=20.0 / qblur=0.5 / ip_ratio=1.40 / aq=3:0.65
Default                                  : Yes
Forced                                   : No
Statistics Tags Issue                    : no_variable_data 1970-01-01 00:00:00 / no_variable_data 2010-02-22 21:41:29
FromStats_BitRate                        : 6750440
FromStats_Duration                       : 01:15:43.748000000
FromStats_FrameCount                     : 108941
FromStats_StreamSize                     : 3834037300

Audio
ID                                       : 2
Format                                   : DTS
Format/Info                              : Digital Theater Systems
Codec ID                                 : A_DTS
Duration                                 : 1 h 15 min
Bit rate mode                            : Constant
Bit rate                                 : 1 509 kb/s
Channel(s)                               : 2 channels
Channel layout                           : L R
Sampling rate                            : 48.0 kHz
Frame rate                               : 93.750 FPS (512 SPF)
Bit depth                                : 24 bits
Compression mode                         : Lossy
Stream size                              : 817 MiB (18%)
Language                                 : English
Default                                  : Yes
Forced                                   : No
Statistics Tags Issue                    : no_variable_data 1970-01-01 00:00:00 / no_variable_data 2010-02-22 21:41:29
FromStats_BitRate                        : 1509000
FromStats_Duration                       : 01:15:43.936000000
FromStats_FrameCount                     : 425994
FromStats_StreamSize                     : 857099928

Menu
00:00:00.000                             : en:Chapter 01
00:07:48.718                             : en:Chapter 02
00:16:45.504                             : en:Chapter 03
00:28:03.682                             : en:Chapter 04
00:40:13.703                             : en:Chapter 05
00:50:47.544                             : en:Chapter 06
01:01:50.624                             : en:Chapter 07
01:08:50.835                             : en:Chapter 08




                                                                                                                                                                                                        
                                                                                                                                                                                                                                                                                                                                                                                                                                                                                                                                                                                                                                                                                                                                                                                                                                                      
25247ef37a754f8c6c5ed9401f702a6d.torrent (44.35 KB, 下载次数: 0)

回复

使用道具 举报

小黑屋|百度云资源论坛 ( 闽ICP备16005822号-1 )

本网站所有资源来自网络,如无意中侵犯了您的权益,请发邮件至 [email protected],立即清除相关链接

GMT+8, 2019-9-20 03:55 , Processed in 0.084634 second(s), 19 queries .

Powered by Discuz! X3.2

© 2001-2013 Comsenz Inc.

快速回复 返回顶部 返回列表