百度云资源论坛

 找回密码
 立即注册
搜索
热搜: 百度云资源
开启左侧

你玩什么? Get.Her.If.You.Can.2019.SPANISH.1080p.BluRay.x264.DTS-PTer 9....

[复制链接]
百度云资源 发表于 2019-9-11 09:42:10 | 显示全部楼层 |阅读模式




帖子完整标题:你玩什么? Get.Her.If.You.Can.2019.SPANISH.1080p.BluRay.x264.DTS-PTer 9.90GB





◎译  名 你玩什么? / Catch her if you can / ?Qué te juegas? / 爱妹赌局(台)
◎片  名 Qué te juegas
◎年  代 2019
◎产  地 西班牙
◎类  别 喜剧
◎语  言 西班牙语
◎上映日期 2019-01-04(西班牙)
◎IMDb评分  5.3/10 from 180 users
◎导  演 Inés de León
◎编  剧 Pablo Alén / Breixo Corral
◎主  演 阿玛雅·萨拉曼卡 Amaia Salamanca
       Sara Salamo
       拉蒂西亚·多瑞拉 Leticia Dolera


◎标  签 喜剧 | 西班牙 | 西班牙电影 | 2019 | 爱情 | 搞笑 | 剧情 | 放映

◎简  介  

  伊莎貝是個脫口秀演員,雖然口袋裡沒什麼錢,卻積極把握生命中的一切。一天,她遇上了家財萬貫、經營海運公司的三兄妹。二哥羅伯特是個愛慕虛榮的少爺,妹妹丹妮拉則是脾氣火爆的討厭鬼。看上了伊莎貝逗笑自己難搞妹妹的才能,羅伯特決定雇用伊莎貝來“搞定”自家妹妹的心。這個完美計畫,還會有來自亞馬遜雨林的巫師、易怒的上尉大哥和兩位擁有堅定信念的演員參與。他們所有人到底會擦出什麼火花呢?
Video
ID                                       : 1
Format                                   : AVC
Format/Info                              : Advanced Video Codec
Format settings                          : CABAC / 5 Ref Frames
Format settings, CABAC                   : Yes
Format settings, Reference frames        : 5 frames
Codec ID                                 : V_MPEG4/ISO/AVC
Duration                                 : 1 h 42 min
Bit rate                                 : 12.3 Mb/s
Width                                    : 1 920 pixels
Height                                   : 804 pixels
Display aspect ratio                     : 2.40:1
Frame rate mode                          : Constant
Frame rate                               : 24.000 FPS
Color space                              : YUV
Chroma subsampling                       : 4:2:0
Bit depth                                : 8 bits
Scan type                                : Progressive
Bits/(Pixel*Frame)                       : 0.333
Stream size                              : 8.81 GiB (89%)
Title                                    : Spanish
Encoding settings                        : cabac=1 / ref=5 / deblock=1:-3:-3 / analyse=0x3:0x133 / me=umh / subme=11 / psy=1 / fade_compensate=0.00 / psy_rd=1.05:0.00 / mixed_ref=1 / me_range=32 / chroma_me=1 / trellis=2 / 8x8dct=1 / cqm=0 / deadzone=21,11 / fast_pskip=0 / chroma_qp_offset=-2 / threads=6 / lookahead_threads=1 / sliced_threads=0 / nr=0 / decimate=0 / interlaced=0 / bluray_compat=0 / constrained_intra=0 / fgo=0 / bframes=7 / b_pyramid=2 / b_adapt=2 / b_bias=0 / direct=3 / weightb=1 / open_gop=0 / weightp=2 / keyint=250 / keyint_min=24 / scenecut=40 / intra_refresh=0 / rc_lookahead=250 / rc=crf / mbtree=0 / crf=16.5000 / qcomp=0.60 / qpmin=0:0:0 / qpmax=69:69:69 / qpstep=4 / vbv_maxrate=62500 / vbv_bufsize=78125 / crf_max=0.0 / nal_hrd=none / filler=0 / ip_ratio=1.30 / pb_ratio=1.20 / aq=3:0.80 / aq-sensitivity=10.00 / aq-factor=1.00:1.00:1.00 / aq2=0 / aq3=0 / zones=556,588,crf=14.5/733,770,crf=14.5/811,1044,crf=14.5/15522,17604,crf=14.5/19666,19719,crf=14.5/24790,24861,crf=14.5/53624,54728,crf=14.5/55914,56986,crf=14.5/59073,59657,crf=14.5/61498,61580,crf=14.5/67825,67867,crf=14.5/75389,75667,crf=14.5/76279,76664,crf=14.5/77028,77614,crf=14.5/80035,80143,crf=14.5/85253,86969,crf=14.5/87127,87166,crf=14.5/90295,91678,crf=14.5/96258,97750,crf=14.5/103672,104191,crf=14.5/116687,116937,crf=14.5/124933,125108,crf=14.5
Language                                 : Spanish
Default                                  : Yes
Forced                                   : No
Color range                              : Limited
Color primaries                          : BT.709
Matrix coefficients                      : BT.709

Audio
ID                                       : 2
Format                                   : DTS
Format/Info                              : Digital Theater Systems
Codec ID                                 : A_DTS
Duration                                 : 1 h 42 min
Bit rate mode                            : Constant
Bit rate                                 : 1 509 kb/s
Channel(s)                               : 6 channels
Channel layout                           : C L R Ls Rs LFE
Sampling rate                            : 48.0 kHz
Frame rate                               : 93.750 FPS (512 SPF)
Bit depth                                : 24 bits
Compression mode                         : Lossy
Stream size                              : 1.08 GiB (11%)
Title                                    : Spanish
Language                                 : Spanish
Default                                  : Yes
Forced                                   : No

Text #1
ID                                       : 3
Format                                   : UTF-8
Codec ID                                 : S_TEXT/UTF8
Codec ID/Info                            : UTF-8 Plain Text
Duration                                 : 1 h 38 min
Bit rate                                 : 79 b/s
Count of elements                        : 1776
Stream size                              : 57.6 KiB (0%)
Title                                    : English
Language                                 : English
Default                                  : Yes
Forced                                   : No

Text #2
ID                                       : 4
Format                                   : UTF-8
Codec ID                                 : S_TEXT/UTF8
Codec ID/Info                            : UTF-8 Plain Text
Duration                                 : 1 h 38 min
Bit rate                                 : 59 b/s
Count of elements                        : 1798
Stream size                              : 43.0 KiB (0%)
Title                                    : Simplified Chinese
Language                                 : Chinese
Default                                  : No
Forced                                   : No

Text #3
ID                                       : 5
Format                                   : UTF-8
Codec ID                                 : S_TEXT/UTF8
Codec ID/Info                            : UTF-8 Plain Text
Duration                                 : 1 h 38 min
Bit rate                                 : 60 b/s
Count of elements                        : 1799
Stream size                              : 43.8 KiB (0%)
Title                                    : Traditional Chinese
Language                                 : Chinese
Default                                  : No
Forced                                   : No

Text #4
ID                                       : 6
Format                                   : PGS
Muxing mode                              : zlib
Codec ID                                 : S_HDMV/PGS
Codec ID/Info                            : Picture based subtitle format used on BDs/HD-DVDs
Duration                                 : 1 h 42 min
Bit rate                                 : 55.5 kb/s
Count of elements                        : 3788
Stream size                              : 40.5 MiB (0%)
Title                                    : Spanish
Language                                 : Spanish
Default                                  : No
Forced                                   : No

Menu
00:00:00.000                             : en:Chapter 01
00:08:28.708                             : en:Chapter 02
00:16:48.875                             : en:Chapter 03
00:24:51.958                             : en:Chapter 04
00:33:14.042                             : en:Chapter 05
00:40:33.917                             : en:Chapter 06
00:49:03.833                             : en:Chapter 07
00:57:20.083                             : en:Chapter 08
01:06:32.917                             : en:Chapter 09
01:15:58.417                             : en:Chapter 10
01:23:36.208                             : en:Chapter 11
01:32:07.417                             : en:Chapter 12




                                                                                                                                                                                                        
                                                                                                                                                                                                                                                                                                                                                                                                                                                                                                                                                                                                                                                                                                                                                                                                                                                      
b042374305b2543ca686cb62630ab6ad.torrent (50.06 KB, 下载次数: 0)

回复

使用道具 举报

小黑屋|百度云资源论坛 ( 闽ICP备16005822号-1 )

本网站所有资源来自网络,如无意中侵犯了您的权益,请发邮件至 [email protected],立即清除相关链接

GMT+8, 2019-9-20 03:56 , Processed in 0.084474 second(s), 19 queries .

Powered by Discuz! X3.2

© 2001-2013 Comsenz Inc.

快速回复 返回顶部 返回列表