百度云资源论坛

 找回密码
 立即注册
搜索
热搜: 百度云资源
开启左侧

俄克拉荷马/奥克拉荷马 Oklahoma.1999.1080p.BluRay.x264-HANDJOB 16.31GB

[复制链接]
百度云资源 发表于 2019-9-11 09:42:12 | 显示全部楼层 |阅读模式




帖子完整标题:俄克拉荷马/奥克拉荷马 Oklahoma.1999.1080p.BluRay.x264-HANDJOB 16.31GB





◎译  名 俄克拉荷马 / 奥克拉荷马
◎片  名 Oklahoma! (1999) (TV)
◎产  地 英国
◎类  别 歌舞
◎语  言 英语
◎上映日期 1999-09-26
◎IMDb评分  7.9/10 from 1688 users
◎片  长 180分钟(DVD)
◎导  演 特雷弗·纳恩 Trevor Nunn
◎编  剧 奥斯卡·汉默斯坦二世 Oscar Hammerstein II / 林恩·瑞格斯 Lynn Riggs
◎主  演 休·杰克曼 Hugh Jackman
       Josefina Gabrielle
       舒勒·汉斯利 Shuler Hensley


◎标  签 音乐剧 | HughJackman | 美国 | 百老汇 | 休·杰克曼 | 经典 | 俄克拉荷马 | musical

◎简  介  

  《奥克拉荷马》《OK lahoma》是美国音乐界两大宗师合力打造而成。理查罗杰斯作曲,奥斯卡汉默斯坦二世填词。以描述二十世纪初期发生在美国西部乡村的三角恋情故事为主题之划时代歌舞大戏。本片是《奥》剧首次以35厘米电影手法拍摄而成的宽荧屏巨作。堪称为《奥》剧现有版本中,制作及表演菁华极品。因为不仅编舞唯美,配乐悠扬,所参与演出之演员皆为昔日首演的原班人马。《奥》剧所受赞誉之声不绝于耳,屡获大奖;其中一举囊括1999年劳伦斯奥利弗奖中“最佳音乐剧制剧评人奖之最佳音乐剧”等佳绩。此剧由名词曲作家之最佳拍档罗杰斯和汉默斯坦二世和葛莱美奖各两项,奖项之多可谓空前绝后。由主演《X战警》出生于澳大利亚雪梨的休斯·杰克曼、著名女高音歌唱家荷西芬娜·吉柏莉、出生于亚特兰大连纽荣获[奥立佛奖]和[东尼奖最佳男配角]的舒勒·汉斯利、出生于英国约克郡多次赢得[奥立佛奖和Variety Club Award]的玛丽安·利普等联合主演。当时最为风光的音乐剧,在百老汇音乐剧界独占鳌头,尊容无以伦比。
Video
ID                                       : 1
Format                                   : AVC
Format/Info                              : Advanced Video Codec
Format settings                          : CABAC / 4 Ref Frames
Format settings, CABAC                   : Yes
Format settings, Reference frames        : 4 frames
Codec ID                                 : V_MPEG4/ISO/AVC
Duration                                 : 2 h 57 min
Bit rate                                 : 11.6 Mb/s
Width                                    : 1 920 pixels
Height                                   : 1 080 pixels
Display aspect ratio                     : 16:9
Frame rate mode                          : Constant
Frame rate                               : 23.976 (24000/1001) FPS
Color space                              : YUV
Chroma subsampling                       : 4:2:0
Bit depth                                : 8 bits
Scan type                                : Progressive
Bits/(Pixel*Frame)                       : 0.234
Stream size                              : 14.4 GiB (89%)
Writing library                          : x264 core 157 r2935 545de2f
Encoding settings                        : cabac=1 / ref=4 / deblock=1:-3:-3 / analyse=0x3:0x133 / me=umh / subme=10 / psy=1 / psy_rd=1.00:0.00 / mixed_ref=1 / me_range=24 / chroma_me=1 / trellis=2 / 8x8dct=1 / cqm=0 / deadzone=21,11 / fast_pskip=0 / chroma_qp_offset=-2 / threads=24 / lookahead_threads=4 / sliced_threads=0 / nr=0 / decimate=0 / interlaced=0 / bluray_compat=0 / constrained_intra=0 / bframes=8 / b_pyramid=2 / b_adapt=2 / b_bias=0 / direct=3 / weightb=1 / open_gop=0 / weightp=2 / keyint=240 / keyint_min=24 / scenecut=40 / intra_refresh=0 / rc_lookahead=60 / rc=crf / mbtree=0 / crf=21.5 / qcomp=0.60 / qpmin=0 / qpmax=69 / qpstep=4 / vbv_maxrate=62500 / vbv_bufsize=78125 / crf_max=0.0 / nal_hrd=none / filler=0 / ip_ratio=1.40 / pb_ratio=1.30 / aq=2:1.00
Default                                  : Yes
Forced                                   : No
Color range                              : Limited
Color primaries                          : BT.709
Transfer characteristics                 : BT.709
Matrix coefficients                      : BT.709

Audio
ID                                       : 2
Format                                   : DTS
Format/Info                              : Digital Theater Systems
Codec ID                                 : A_DTS
Duration                                 : 2 h 57 min
Bit rate mode                            : Constant
Bit rate                                 : 1 509 kb/s
Channel(s)                               : 2 channels
Channel layout                           : L R
Sampling rate                            : 48.0 kHz
Frame rate                               : 93.750 FPS (512 SPF)
Bit depth                                : 16 bits
Compression mode                         : Lossy
Stream size                              : 1.87 GiB (11%)
Language                                 : English
Default                                  : Yes
Forced                                   : No

Text
ID                                       : 3
Format                                   : UTF-8
Codec ID                                 : S_TEXT/UTF8
Codec ID/Info                            : UTF-8 Plain Text
Duration                                 : 2 h 54 min
Bit rate                                 : 63 b/s
Count of elements                        : 2591
Stream size                              : 81.4 KiB (0%)
Language                                 : English
Default                                  : No
Forced                                   : No

Menu
00:00:00.000                             : :Chapter 1
00:02:48.669                             : :Chapter 2
00:27:02.663                             : :Chapter 3
00:44:29.750                             : :Chapter 4
00:53:19.780                             : :Chapter 5
01:07:21.538                             : :Chapter 6
01:26:42.239                             : :Chapter 7
01:46:11.156                             : :Chapter 8
01:46:18.747                             : :Chapter 9
02:11:35.554                             : :Chapter 10
02:20:21.246                             : :Chapter 11
02:28:02.665                             : :Chapter 12
02:32:29.474                             : :Chapter 13
02:55:09.749                             : :Chapter 14




                                                                                                                                                                                                        
                                                                                                                                                                                                                                                                                                                                                                                                                                                                                                                                                                                                                                                                                                                                                                                                                                                      
f7d0154d6e45e6611b9e1ffdd6587d82.torrent (82.06 KB, 下载次数: 0)

回复

使用道具 举报

小黑屋|百度云资源论坛 ( 闽ICP备16005822号-1 )

本网站所有资源来自网络,如无意中侵犯了您的权益,请发邮件至 [email protected],立即清除相关链接

GMT+8, 2019-9-20 03:53 , Processed in 0.086264 second(s), 19 queries .

Powered by Discuz! X3.2

© 2001-2013 Comsenz Inc.

快速回复 返回顶部 返回列表