百度云资源论坛

 找回密码
 立即注册
搜索
热搜: 百度云资源
开启左侧

抢红 Wine.War.2018.1080p.BluRay.x264-REGRET 6.58GB

[复制链接]
百度云电影 发表于 2019-9-11 09:42:15 | 显示全部楼层 |阅读模式




帖子完整标题:抢红 Wine.War.2018.1080p.BluRay.x264-REGRET 6.58GB





◎译  名 Wine War / Z计划
◎片  名 抢红
◎年  代 2017
◎产  地 中国大陆
◎类  别 动作 / 犯罪
◎语  言 汉语普通话
◎上映日期 2017-05-19(中国大陆)
◎IMDb评分  4.2/10 from 68 users
◎片  长 90分钟
◎导  演 黎明 Leon Lai
◎编  剧 熊山君 / 毕成功 Chenggong Bi / 黎明 Leon Lai
◎主  演 张涵予 Hanyu Zhang
       黎明 Leon Lai
       王耀庆 David Wang
       杜鹃 Juan Du
       南伏龙 Fulong Nan
       黄尚禾 Shang-Ho Huang
       吉丽 Lily Ji
       苍井空 Sola Aoi


◎标  签 烂片 | 2017 | 动作 | 喜剧 | 华语 | 中国 | 犯罪 | 硬汉

◎简  介  

  朝不保夕的司机张水(张涵予 饰),受上司方长方(王耀庆 饰)利诱,答应亲赴法国邀请义弟韦力(黎明 饰)帮忙参加天价红酒的竞拍。张水谎称为国家执行秘密任务骗得韦力的信任,一同前往品酒大会。拍卖现场,张水意外的发现指使自己来参加拍卖会的老板方长方也在现场,而此时的方长方好像从没认识过张水...品酒会的主持者利芳(杜鹃 饰)与各路买家逐一品酒,只有通过考验的人才可以参与到竞拍环节。
  利芳同父异母的哥哥LK此时在众人之外静静的看着所发生的一切,谁也想不到,拍卖会的真正目的根本不是卖酒……
Video
ID                                       : 1
Format                                   : AVC
Format/Info                              : Advanced Video Code
Format settings                          : CABAC / 5 Ref Frames
Format settings, CABAC                   : Yes
Format settings, Reference frames        : 5 frames
Codec ID                                 : V_MPEG4/ISO/AVC
Duration                                 : 1 h 30 min
Bit rate                                 : 9 789 kb/s
Width                                    : 1 920 pixels
Height                                   : 816 pixels
Display aspect ratio                     : 2.35:1
Frame rate mode                          : Constant
Frame rate                               : 24.000 FPS
Color space                              : YUV
Chroma subsampling                       : 4:2:0
Bit depth                                : 8 bits
Scan type                                : Progressive
Bits/(Pixel*Frame)                       : 0.260
Stream size                              : 6.15 GiB (94%)
Writing library                          : x264 core 157 r2970 5493be8
Encoding settings                        : cabac=1 / ref=5 / deblock=1:-3:-3 / analyse=0x3:0x133 / me=umh / subme=9 / psy=1 / psy_rd=1.00:0.00 / mixed_ref=1 / me_range=16 / chroma_me=1 / trellis=2 / 8x8dct=1 / cqm=0 / deadzone=21,11 / fast_pskip=0 / chroma_qp_offset=-2 / threads=24 / lookahead_threads=2 / sliced_threads=0 / nr=0 / decimate=1 / interlaced=0 / bluray_compat=0 / constrained_intra=0 / bframes=3 / b_pyramid=2 / b_adapt=1 / b_bias=0 / direct=3 / weightb=1 / open_gop=0 / weightp=2 / keyint=240 / keyint_min=24 / scenecut=40 / intra_refresh=0 / rc_lookahead=50 / rc=2pass / mbtree=1 / bitrate=9789 / ratetol=1.0 / qcomp=0.60 / qpmin=0 / qpmax=69 / qpstep=4 / cplxblur=20.0 / qblur=0.5 / ip_ratio=1.40 / aq=1:1.00
Language                                 : English
Default                                  : Yes
Forced                                   : No

Audio
ID                                       : 2
Format                                   : AC-3
Format/Info                              : Audio Coding 3
Commercial name                          : Dolby Digital
Codec ID                                 : A_AC3
Duration                                 : 1 h 30 min
Bit rate mode                            : Constant
Bit rate                                 : 640 kb/s
Channel(s)                               : 6 channels
Channel layout                           : L R C LFE Ls Rs
Sampling rate                            : 48.0 kHz
Frame rate                               : 31.250 FPS (1536 SPF)
Bit depth                                : 16 bits
Compression mode                         : Lossy
Stream size                              : 412 MiB (6%)
Language                                 : Chinese
Service kind                             : Complete Main
Default                                  : Yes
Forced                                   : No

Text
ID                                       : 3
Format                                   : UTF-8
Codec ID                                 : S_TEXT/UTF8
Codec ID/Info                            : UTF-8 Plain Text
Duration                                 : 1 h 18 min
Bit rate                                 : 56 b/s
Count of elements                        : 1255
Stream size                              : 32.9 KiB (0%)
Title                                    : English
Language                                 : English
Default                                  : Yes
Forced                                   : Yes

Menu
00:00:00.000                             : en:00:00:00.000
00:05:35.208                             : en:00:05:35.208
00:09:35.708                             : en:00:09:35.708
00:13:01.917                             : en:00:13:01.917
00:18:37.000                             : en:00:18:37.000
00:21:03.375                             : en:00:21:03.375
00:26:36.750                             : en:00:26:36.750
00:32:21.667                             : en:00:32:21.667
00:38:04.792                             : en:00:38:04.792
00:45:37.625                             : en:00:45:37.625
00:50:02.833                             : en:00:50:02.833
00:56:31.125                             : en:00:56:31.125
01:00:27.500                             : en:01:00:27.500
01:04:58.875                             : en:01:04:58.875
01:10:30.250                             : en:01:10:30.250
01:15:12.042                             : en:01:15:12.042
01:19:04.333                             : en:01:19:04.333
01:22:39.167                             : en:01:22:39.167




                                                                                                                                                                                                        
                                                                                                                                                                                                                                                                                                                                                                                                                                                                                                                                                                                                                                                                                                                                                                                                                                                      
8939d67ac1bcffb8792b68ce74baab00.torrent (33.65 KB, 下载次数: 0)

回复

使用道具 举报

小黑屋|百度云资源论坛 ( 闽ICP备16005822号-1 )

本网站所有资源来自网络,如无意中侵犯了您的权益,请发邮件至 [email protected],立即清除相关链接

GMT+8, 2019-9-20 03:57 , Processed in 0.073137 second(s), 19 queries .

Powered by Discuz! X3.2

© 2001-2013 Comsenz Inc.

快速回复 返回顶部 返回列表