百度云资源论坛

 找回密码
 立即注册
搜索
热搜: 百度云资源
开启左侧

X战警:黑凤凰 Dark.Phoenix.2019.720p.BluRay.x264-GECKOS 5.47GB

[复制链接]
百度云资源 发表于 2019-9-12 08:08:53 | 显示全部楼层 |阅读模式




帖子完整标题:X战警:黑凤凰 Dark.Phoenix.2019.720p.BluRay.x264-GECKOS 5.47GB





◎译  名 X战警:黑凤凰 / X-Men: Dark Phoenix / X-Men: Supernova / X战警7 / X战警前传4 / X战警:超新星 / X战警:黑凤凰传奇 / 变种特攻:黑凤凰(港)
◎片  名 Dark Phoenix
◎年  代 2019
◎产  地 美国
◎类  别 动作 / 科幻 / 冒险
◎语  言 英语
◎上映日期 2019-06-06(中国大陆) / 2019-06-07(美国)
◎片  长 114分钟
◎导  演 西蒙·金伯格 Simon Kinberg
◎编  剧 西蒙·金伯格 Simon Kinberg / 约翰·拜恩 John Byrne / 克里斯·克雷蒙 Chris Claremont / 戴夫·科克勒姆 Dave Cockrum / 杰克·科比 Jack Kirby / 斯坦·李 Stan Lee
◎主  演 苏菲·特纳 Sophie Turner
       詹姆斯·麦卡沃伊 James McAvoy
       迈克尔·法斯宾德 Michael Fassbender
       尼古拉斯·霍尔特 Nicholas Hoult
       泰伊·谢里丹 Tye Sheridan
       杰西卡·查斯坦 Jessica Chastain
       詹妮弗·劳伦斯 Jennifer Lawrence
       柯蒂·斯密特-麦菲 Kodi Smit-McPhee
       亚历山德拉·希普 Alexandra Shipp
       埃文·彼得斯 Evan Peters
       丹尼尔·库德摩尔 Daniel Cudmore
       奥托·艾森度 Ato Essandoh
       伊万·乔尼凯特 Evan Jonigkeit
       莎莫·芳塔娜 Summer Fontana
       斯科特· 谢泼德 Scott Shepherd
       拉马尔·约翰逊 Lamar Johnson
       泰勒·艾略特·伯克 Tyler Elliot Burke
       安德鲁·斯特林 Andrew Stehlin
       朱利安·拜利 Julian Bailey
       Maurizio Terrazzano
       Josh McLaglen
       格雷格·洛 Gregg Lowe
       塞巴斯蒂安·麦克莱恩 Sebastian MacLean
       沙维尔·索特洛 Xavier Sotelo
       Karen Ivany
       奥利维耶·拉玛舒 Olivier Lamarche
       西蒙·阿兰 Simon Alain
       Alexandre Bélanger


◎标  签 X战警 | 漫威 | 科幻 | 美国 | 超级英雄 | 2019 | 漫画改编 | 动作

◎简  介  

  影片剧情围绕X战警中最受欢迎成员之一的琴·葛蕾展开,讲述她逐渐转化为黑凤凰的故事。在一次危及生命的太空营救行动中,琴被神秘的宇宙力量击中,成为最强大的变种人。此后琴·葛蕾不仅要设法掌控日益增长、极不稳定的力量,更要与自己内心的恶魔抗争,她的失控让整个X战警大家庭分崩离析,也让整个星球陷入毁灭的威胁之中。《X战警:黑凤凰》是迄今为止气氛最紧张、情感最丰富的一部《X战警》电影,是《X战警》系列20年来的集大成之作,大家非常熟悉和热爱的变种人大家庭即将面对最为强大的敌人——而她恰恰还是他们中的一员。

◎获奖情况  

  第5届豆瓣电影年度榜单(2018)
  最值得期待的外语电影(提名)
Video
ID                                       : 1
Format                                   : AVC
Format/Info                              : Advanced Video Codec
Format settings                          : CABAC / 5 Ref Frames
Format settings, CABAC                   : Yes
Format settings, Reference frames        : 5 frames
Codec ID                                 : V_MPEG4/ISO/AVC
Duration                                 : 1 h 53 min
Bit rate                                 : 5 356 kb/s
Width                                    : 1 280 pixels
Height                                   : 536 pixels
Display aspect ratio                     : 2.40:1
Frame rate mode                          : Constant
Frame rate                               : 23.976 (24000/1001) FPS
Color space                              : YUV
Chroma subsampling                       : 4:2:0
Bit depth                                : 8 bits
Scan type                                : Progressive
Bits/(Pixel*Frame)                       : 0.326
Stream size                              : 4.26 GiB (78%)
Writing library                          : x264 core 158 r2984 3759fcb
Encoding settings                        : cabac=1 / ref=5 / deblock=1:-3:-3 / analyse=0x3:0x133 / me=umh / subme=8 / psy=1 / psy_rd=1.00:0.00 / mixed_ref=1 / me_range=16 / chroma_me=1 / trellis=1 / 8x8dct=1 / cqm=0 / deadzone=21,11 / fast_pskip=0 / chroma_qp_offset=-2 / threads=17 / lookahead_threads=2 / sliced_threads=0 / nr=0 / decimate=1 / interlaced=0 / bluray_compat=0 / constrained_intra=0 / bframes=3 / b_pyramid=2 / b_adapt=1 / b_bias=0 / direct=3 / weightb=1 / open_gop=0 / weightp=2 / keyint=250 / keyint_min=23 / scenecut=40 / intra_refresh=0 / rc_lookahead=50 / rc=2pass / mbtree=1 / bitrate=5356 / ratetol=1.0 / qcomp=0.60 / qpmin=0 / qpmax=69 / qpstep=4 / cplxblur=20.0 / qblur=0.5 / vbv_maxrate=62500 / vbv_bufsize=78125 / nal_hrd=none / filler=0 / ip_ratio=1.40 / aq=1:1.00
Default                                  : Yes
Forced                                   : No

Audio
ID                                       : 2
Format                                   : DTS
Format/Info                              : Digital Theater Systems
Codec ID                                 : A_DTS
Duration                                 : 1 h 53 min
Bit rate mode                            : Constant
Bit rate                                 : 1 509 kb/s
Channel(s)                               : 6 channels
Channel layout                           : C L R Ls Rs LFE
Sampling rate                            : 48.0 kHz
Frame rate                               : 93.750 FPS (512 SPF)
Bit depth                                : 24 bits
Compression mode                         : Lossy
Stream size                              : 1.20 GiB (22%)
Language                                 : English
Default                                  : Yes
Forced                                   : No

Text
ID                                       : 3
Format                                   : UTF-8
Codec ID                                 : S_TEXT/UTF8
Codec ID/Info                            : UTF-8 Plain Text
Duration                                 : 31 min 20 s
Bit rate                                 : 0 b/s
Count of elements                        : 4
Stream size                              : 168 Bytes (0%)
Title                                    : English Forced
Language                                 : English
Default                                  : Yes
Forced                                   : Yes

Menu
00:00:00.000                             : en:00:00:00.000
00:03:28.875                             : en:00:03:28.875
00:07:34.621                             : en:00:07:34.621
00:11:42.201                             : en:00:11:42.201
00:15:44.110                             : en:00:15:44.110
00:18:37.408                             : en:00:18:37.408
00:25:24.481                             : en:00:25:24.481
00:31:40.357                             : en:00:31:40.357
00:34:19.307                             : en:00:34:19.307
00:40:07.447                             : en:00:40:07.447
00:44:36.090                             : en:00:44:36.090
00:49:07.778                             : en:00:49:07.778
00:55:38.168                             : en:00:55:38.168
00:58:57.409                             : en:00:58:57.409
01:02:57.190                             : en:01:02:57.190
01:10:40.111                             : en:01:10:40.111
01:13:42.418                             : en:01:13:42.418
01:19:33.477                             : en:01:19:33.477
01:22:35.701                             : en:01:22:35.701
01:25:49.061                             : en:01:25:49.061
01:30:38.350                             : en:01:30:38.350
01:32:48.188                             : en:01:32:48.188
01:37:59.624                             : en:01:37:59.624
01:45:01.045                             : en:01:45:01.045




                                                                                                                                                                                                        
                                                                                                                                                                                                                                                                                                                                                                                                                                                                                                                                                                                                                                                                                                                                                                                                                                                      
7f3c4e432abdcbab2acd334a56bb2add.torrent (28.19 KB, 下载次数: 0)

回复

使用道具 举报

小黑屋|百度云资源论坛 ( 闽ICP备16005822号-1 )

本网站所有资源来自网络,如无意中侵犯了您的权益,请发邮件至 [email protected],立即清除相关链接

GMT+8, 2019-9-20 03:55 , Processed in 0.074242 second(s), 19 queries .

Powered by Discuz! X3.2

© 2001-2013 Comsenz Inc.

快速回复 返回顶部 返回列表