百度云资源论坛

 找回密码
 立即注册
搜索
热搜: 百度云资源
开启左侧

纪念品:第一部分 The.Souvenir.2019.720p.BluRay.X264-AMIABLE 7.96GB

[复制链接]
百度云电影 发表于 2019-9-12 08:08:55 | 显示全部楼层 |阅读模式





帖子完整标题:纪念品:第一部分 The.Souvenir.2019.720p.BluRay.X264-AMIABLE 7.96GB





◎译  名 纪念品:第一部分
◎片  名 The Souvenir: Part I
◎年  代 2019
◎产  地 英国 / 美国
◎类  别 剧情 / 爱情 / 悬疑
◎语  言 英语
◎上映日期 2019-01-27(圣丹斯电影节) / 2019-05-17(美国)
◎IMDb评分  6.9/10 from 1138 users
◎片  长 119分钟
◎导  演 乔安娜·霍格 Joanna Hogg
◎编  剧 乔安娜·霍格 Joanna Hogg
◎主  演 奥诺·斯温顿·伯恩 Honor Swinton Byrne
      汤姆·伯克 Tom Burke
      蒂尔达·斯文顿 Tilda Swinton
      理查德·艾欧阿德 Richard Ayoade
      杰克·麦克马伦 Jack McMullen


◎标  签 英国 | 2019 | 爱情 | 美国 | 独立 | 剧情 | 乔安娜·霍格 | 蒂尔达·斯文顿

◎简  介  

  影片讲述一个年轻、有野心的电影学生(Honor Swinton Byrne 饰)和一个有魅力的神秘男人(汤姆·伯克 饰)开始了她的初恋,她尝试将现实和虚构分离开,违抗过度保护的母亲(蒂尔达·斯文顿 饰),而这段关系正危险地接近摧毁她的梦想。
乔安娜·霍格执导,马丁·斯科塞斯担任执行制片人,BBC Films、BFI、JWH Films、Sikelia productions联合制作,5月17日北美上映。

◎获奖情况  

  第35届圣丹斯电影节(2019)
  评审团大奖 世界电影单元剧情片



Video
ID                                       : 1
Format                                   : AVC
Format/Info                              : Advanced Video Codec
Format settings                          : CABAC / 5 Ref Frames
Format settings, CABAC                   : Yes
Format settings, Reference frames        : 5 frames
Codec ID                                 : V_MPEG4/ISO/AVC
Duration                                 : 1 h 59 min
Bit rate                                 : 7 984 kb/s
Width                                    : 1 200 pixels
Height                                   : 720 pixels
Display aspect ratio                     : 5:3
Frame rate mode                          : Constant
Frame rate                               : 23.976 (24000/1001) FPS
Color space                              : YUV
Chroma subsampling                       : 4:2:0
Bit depth                                : 8 bits
Scan type                                : Progressive
Bits/(Pixel*Frame)                       : 0.385
Stream size                              : 6.52 GiB (82%)
Writing library                          : x264 core 158 r2984 3759fcb
Encoding settings                        : cabac=1 / ref=5 / deblock=1:-3:-3 / analyse=0x3:0x113 / me=umh / subme=8 / psy=1 / psy_rd=1.10:0.00 / mixed_ref=1 / me_range=24 / chroma_me=1 / trellis=2 / 8x8dct=1 / cqm=0 / deadzone=21,11 / fast_pskip=1 / chroma_qp_offset=-2 / threads=22 / lookahead_threads=3 / sliced_threads=0 / nr=0 / decimate=1 / interlaced=0 / bluray_compat=0 / constrained_intra=0 / bframes=3 / b_pyramid=2 / b_adapt=2 / b_bias=0 / direct=3 / weightb=1 / open_gop=0 / weightp=2 / keyint=240 / keyint_min=24 / scenecut=40 / intra_refresh=0 / rc_lookahead=50 / rc=2pass / mbtree=1 / bitrate=7984 / ratetol=1.0 / qcomp=0.60 / qpmin=0 / qpmax=69 / qpstep=4 / cplxblur=20.0 / qblur=0.5 / ip_ratio=1.40 / aq=3:0.70
Default                                  : Yes
Forced                                   : No
Statistics Tags Issue                    : no_variable_data 1970-01-01 00:00:00 / no_variable_data 2010-02-22 21:41:29
FromStats_BitRate                        : 7983427
FromStats_Duration                       : 01:59:47.222000000
FromStats_FrameCount                     : 172321
FromStats_StreamSize                     : 7172333057

Audio
ID                                       : 2
Format                                   : DTS
Format/Info                              : Digital Theater Systems
Codec ID                                 : A_DTS
Duration                                 : 1 h 59 min
Bit rate mode                            : Constant
Bit rate                                 : 1 509 kb/s
Channel(s)                               : 6 channels
Channel layout                           : C L R Ls Rs LFE
Sampling rate                            : 48.0 kHz
Frame rate                               : 93.750 FPS (512 SPF)
Bit depth                                : 24 bits
Compression mode                         : Lossy
Stream size                              : 1.26 GiB (16%)
Language                                 : English
Default                                  : Yes
Forced                                   : No
Statistics Tags Issue                    : no_variable_data 1970-01-01 00:00:00 / no_variable_data 2010-02-22 21:41:29
FromStats_BitRate                        : 1508999
FromStats_Duration                       : 01:59:47.222000000
FromStats_FrameCount                     : 673802
FromStats_StreamSize                     : 1355689624

Text #1
ID                                       : 3
Format                                   : UTF-8
Codec ID                                 : S_TEXT/UTF8
Codec ID/Info                            : UTF-8 Plain Text
Language                                 : English
Default                                  : No
Forced                                   : No
Statistics Tags Issue                    : no_variable_data 1970-01-01 00:00:00 / no_variable_data 2010-02-22 21:41:29
FromStats_BitRate                        : 54
FromStats_Duration                       : 01:58:45.660000000
FromStats_FrameCount                     : 1278
FromStats_StreamSize                     : 48605

Text #2
ID                                       : 4
Format                                   : UTF-8
Codec ID                                 : S_TEXT/UTF8
Codec ID/Info                            : UTF-8 Plain Text
Title                                    : SDH
Language                                 : English
Default                                  : No
Forced                                   : No
Statistics Tags Issue                    : no_variable_data 1970-01-01 00:00:00 / no_variable_data 2010-02-22 21:41:29
FromStats_BitRate                        : 60
FromStats_Duration                       : 01:59:27.368000000
FromStats_FrameCount                     : 1425
FromStats_StreamSize                     : 54391

Menu
00:00:00.000                             : en:Chapter 01
00:06:49.326                             : en:Chapter 02
00:13:51.664                             : en:Chapter 03
00:26:13.864                             : en:Chapter 04
00:29:55.585                             : en:Chapter 05
00:37:30.957                             : en:Chapter 06
00:45:39.695                             : en:Chapter 07
00:52:25.642                             : en:Chapter 08
01:00:26.748                             : en:Chapter 09
01:07:22.789                             : en:Chapter 10
01:15:17.263                             : en:Chapter 11
01:23:06.815                             : en:Chapter 12
01:32:12.235                             : en:Chapter 13
01:40:58.928                             : en:Chapter 14
01:45:06.091                             : en:Chapter 15
01:52:52.140                             : en:Chapter 16




                                                                                                                                                                                                        
                                                                                                                                                                                                                                                                                                                                                                                                                                                                                                                                                                                                                                                                                                                                                                                                                                                      
7aadc40cecf127b237b2a4b16bd6536a.torrent (40.64 KB, 下载次数: 0)

回复

使用道具 举报

小黑屋|百度云资源论坛 ( 闽ICP备16005822号-1 )

本网站所有资源来自网络,如无意中侵犯了您的权益,请发邮件至 [email protected],立即清除相关链接

GMT+8, 2019-9-20 03:57 , Processed in 0.085402 second(s), 19 queries .

Powered by Discuz! X3.2

© 2001-2013 Comsenz Inc.

快速回复 返回顶部 返回列表