百度云资源论坛

 找回密码
 立即注册
搜索
热搜: 百度云资源
开启左侧

我制服了魔鬼 I.Trapped.the.Devil.2019.720p.BluRay.x264-BRMP 4.38GB

[复制链接]





帖子完整标题:我制服了魔鬼 I.Trapped.the.Devil.2019.720p.BluRay.x264-BRMP 4.38GB





◎译  名 我制服了魔鬼 / A Man in the Dark
◎片  名 I Trapped the Devil
◎年  代 2019
◎产  地 美国
◎类  别 恐怖
◎语  言 英语
◎上映日期 2019-04-12(Imagine Film Festival)
◎IMDb评分  4.7/10 from 414 users
◎片  长 82分钟
◎导  演 Josh Lobo
◎编  剧 Josh Lobo
◎主  演 克里斯·沙利文 Chris Sullivan
      乔赛琳·唐娜休 Jocelin Donahue
      AJ·鲍恩 AJ Bowen


◎标  签 恐怖 | 美国 | 2019 | 犯罪 | 悬疑 | 魔鬼 | 美国电影 | 长片

◎简  介  

  Christmas is supposed to be a time for peace and joyful family reunions. But when Matt and his wife Karen show up unannounced at the home of his estranged brother Steve to celebrate the holidays, they are instead greeted with a horrifying surprise: trapped in the basement is a man. But not just any man. Steve believes that his hostage is none other than the devil himself.

Video
ID                                       : 1
Format                                   : AVC
Format/Info                              : Advanced Video Codec
Format settings                          : CABAC / 5 Ref Frames
Format settings, CABAC                   : Yes
Format settings, Reference frames        : 5 frames
Codec ID                                 : V_MPEG4/ISO/AVC
Duration                                 : 1 h 23 min
Bit rate                                 : 5 958 kb/s
Width                                    : 1 280 pixels
Height                                   : 544 pixels
Display aspect ratio                     : 2.35:1
Frame rate mode                          : Constant
Frame rate                               : 23.976 (24000/1001) FPS
Color space                              : YUV
Chroma subsampling                       : 4:2:0
Bit depth                                : 8 bits
Scan type                                : Progressive
Bits/(Pixel*Frame)                       : 0.357
Stream size                              : 3.49 GiB (80%)
Writing library                          : x264 core 157 r2969 d4099dd
Encoding settings                        : cabac=1 / ref=5 / deblock=1:0:0 / analyse=0x3:0x133 / me=umh / subme=7 / psy=1 / psy_rd=1.00:0.00 / mixed_ref=1 / me_range=16 / chroma_me=1 / trellis=1 / 8x8dct=1 / cqm=0 / deadzone=21,11 / fast_pskip=0 / chroma_qp_offset=-2 / threads=17 / lookahead_threads=2 / sliced_threads=0 / nr=0 / decimate=1 / interlaced=0 / bluray_compat=0 / constrained_intra=0 / bframes=3 / b_pyramid=2 / b_adapt=1 / b_bias=0 / direct=1 / weightb=1 / open_gop=0 / weightp=2 / keyint=240 / keyint_min=23 / scenecut=40 / intra_refresh=0 / rc_lookahead=40 / rc=2pass / mbtree=1 / bitrate=5958 / ratetol=1.0 / qcomp=0.60 / qpmin=10 / qpmax=51 / qpstep=4 / cplxblur=20.0 / qblur=0.5 / ip_ratio=1.40 / aq=1:1.00
Default                                  : Yes
Forced                                   : No

Audio
ID                                       : 2
Format                                   : DTS
Format/Info                              : Digital Theater Systems
Codec ID                                 : A_DTS
Duration                                 : 1 h 23 min
Bit rate mode                            : Constant
Bit rate                                 : 1 509 kb/s
Channel(s)                               : 6 channels
Channel layout                           : C L R Ls Rs LFE
Sampling rate                            : 48.0 kHz
Frame rate                               : 93.750 FPS (512 SPF)
Bit depth                                : 24 bits
Compression mode                         : Lossy
Stream size                              : 905 MiB (20%)
Language                                 : English
Default                                  : Yes
Forced                                   : No

Menu
00:00:00.000                             : en:Chapter 01
00:06:18.962                             : en:Chapter 02
00:14:42.131                             : en:Chapter 03
00:21:58.359                             : en:Chapter 04
00:28:42.387                             : en:Chapter 05
00:34:55.844                             : en:Chapter 06
00:43:06.626                             : en:Chapter 07
00:49:46.192                             : en:Chapter 08
00:57:49.174                             : en:Chapter 09
01:04:14.851                             : en:Chapter 10
01:10:35.982                             : en:Chapter 11
01:14:26.504                             : en:Chapter 12




                                                                                                                                                                                                        
                                                                                                                                                                                                                                                                                                                                                                                                                                                                                                                                                                                                                                                                                                                                                                                                                                                      
2d65feb39881929aa2ef928c2bc9415a.torrent (44.64 KB, 下载次数: 0)

回复

使用道具 举报

小黑屋|百度云资源论坛 ( 闽ICP备16005822号-1 )

本网站所有资源来自网络,如无意中侵犯了您的权益,请发邮件至 [email protected],立即清除相关链接

GMT+8, 2019-9-16 11:12 , Processed in 0.061948 second(s), 19 queries .

Powered by Discuz! X3.2

© 2001-2013 Comsenz Inc.

快速回复 返回顶部 返回列表