百度云资源论坛

 找回密码
 立即注册
搜索
热搜: 百度云资源
开启左侧

匿名杀手/杀手匿名会 Killers.Anonymous.2019.720p.BluRay.x264-BRMP 4.39GB

[复制链接]
百度云资源 发表于 2019-9-12 08:08:58 | 显示全部楼层 |阅读模式





帖子完整标题:匿名杀手/杀手匿名会 Killers.Anonymous.2019.720p.BluRay.x264-BRMP 4.39GB





◎译  名 匿名杀手 / 杀手匿名会
◎片  名 Killers Anonymous
◎年  代 2019
◎产  地 英国 / 美国
◎类  别 动作 / 悬疑 / 惊悚 / 犯罪
◎语  言 英语
◎上映日期 2019-06-28(美国) / 2019-08-28(英国)
◎IMDb评分  6.8/10 from 4906 users
◎片  长 95分钟
◎导  演 马丁·欧文 Martin Owen
◎编  剧 赛斯·约翰逊 Seth Johnson / 伊丽莎白·莫里斯 Elizabeth Morris / 马丁·欧文 Martin Owen
◎主  演 加里·奥德曼 Gary Oldman
       杰西卡·阿尔芭 Jessica Alba
       苏琪·沃特豪斯 Suki Waterhouse
       汤米·弗拉纳根 Tommy Flanagan
       玛安娜·本灵 MyAnna Buring
       蒂姆·麦克纳尼 Tim McInnerny
       珊迪·弗罗斯特 Sadie Frost
       迈克尔·索恰 Michael Socha
       山姆·哈兹尔丁 Sam Hazeldine
       伊莎贝尔·艾伦 Isabelle Allen
       露丝·霍洛克斯 Ruth Horrocks
       Rhyon Nicole Brown
       Elliot James Langridge


◎标  签 犯罪 | 悬疑 | 2019 | 动作 | 英国电影 | 英国 | 加里·奥德曼 | 杰西卡·阿尔芭

◎简  介  

  杀手匿名会——定期举行的杀手匿名互助小组,参与者坐成一圈,凭着对彼此的信任相互分享各自过犯。这些陷入挣扎的匿名杀手,有的深爱杀戮,有的不想继续,无论如何,他们都需要倾诉与聆听。
Video
ID                                       : 1
Format                                   : AVC
Format/Info                              : Advanced Video Codec
Format settings                          : CABAC / 5 Ref Frames
Format settings, CABAC                   : Yes
Format settings, Reference frames        : 5 frames
Codec ID                                 : V_MPEG4/ISO/AVC
Duration                                 : 1 h 35 min
Bit rate                                 : 5 019 kb/s
Width                                    : 1 280 pixels
Height                                   : 544 pixels
Display aspect ratio                     : 2.35:1
Frame rate mode                          : Constant
Frame rate                               : 23.976 (24000/1001) FPS
Color space                              : YUV
Chroma subsampling                       : 4:2:0
Bit depth                                : 8 bits
Scan type                                : Progressive
Bits/(Pixel*Frame)                       : 0.301
Stream size                              : 3.36 GiB (77%)
Writing library                          : x264 core 157 r2969 d4099dd
Encoding settings                        : cabac=1 / ref=5 / deblock=1:0:0 / analyse=0x3:0x133 / me=umh / subme=7 / psy=1 / psy_rd=1.00:0.00 / mixed_ref=1 / me_range=16 / chroma_me=1 / trellis=1 / 8x8dct=1 / cqm=0 / deadzone=21,11 / fast_pskip=0 / chroma_qp_offset=-2 / threads=17 / lookahead_threads=2 / sliced_threads=0 / nr=0 / decimate=1 / interlaced=0 / bluray_compat=0 / constrained_intra=0 / bframes=3 / b_pyramid=2 / b_adapt=1 / b_bias=0 / direct=1 / weightb=1 / open_gop=0 / weightp=2 / keyint=240 / keyint_min=23 / scenecut=40 / intra_refresh=0 / rc_lookahead=40 / rc=2pass / mbtree=1 / bitrate=5019 / ratetol=1.0 / qcomp=0.60 / qpmin=10 / qpmax=51 / qpstep=4 / cplxblur=20.0 / qblur=0.5 / ip_ratio=1.40 / aq=1:1.00
Default                                  : Yes
Forced                                   : No

Audio
ID                                       : 2
Format                                   : DTS
Format/Info                              : Digital Theater Systems
Codec ID                                 : A_DTS
Duration                                 : 1 h 35 min
Bit rate mode                            : Constant
Bit rate                                 : 1 509 kb/s
Channel(s)                               : 6 channels
Channel layout                           : C L R Ls Rs LFE
Sampling rate                            : 48.0 kHz
Frame rate                               : 93.750 FPS (512 SPF)
Bit depth                                : 24 bits
Compression mode                         : Lossy
Stream size                              : 1.01 GiB (23%)
Language                                 : English
Default                                  : Yes
Forced                                   : No

Menu
00:00:00.000                             : en:Chapter 01
00:08:53.324                             : en:Chapter 02
00:15:20.711                             : en:Chapter 03
00:22:24.593                             : en:Chapter 04
00:29:08.956                             : en:Chapter 05
00:34:53.550                             : en:Chapter 06
00:42:32.925                             : en:Chapter 07
00:45:51.374                             : en:Chapter 08
00:49:31.051                             : en:Chapter 09
00:54:00.612                             : en:Chapter 10
00:58:51.653                             : en:Chapter 11
01:08:00.785                             : en:Chapter 12
01:12:52.785                             : en:Chapter 13
01:18:44.136                             : en:Chapter 14
01:24:21.098                             : en:Chapter 15
01:28:20.045                             : en:Chapter 16




                                                                                                                                                                                                        
                                                                                                                                                                                                                                                                                                                                                                                                                                                                                                                                                                                                                                                                                                                                                                                                                                                      
fbb6eabb8bffc712464dc4ee08397747.torrent (44.73 KB, 下载次数: 0)

回复

使用道具 举报

小黑屋|百度云资源论坛 ( 闽ICP备16005822号-1 )

本网站所有资源来自网络,如无意中侵犯了您的权益,请发邮件至 [email protected],立即清除相关链接

GMT+8, 2019-9-20 03:56 , Processed in 0.071665 second(s), 19 queries .

Powered by Discuz! X3.2

© 2001-2013 Comsenz Inc.

快速回复 返回顶部 返回列表