百度云资源论坛

 找回密码
 立即注册
搜索
热搜: 百度云资源
开启左侧

路易斯安纳鱼子酱 Bayou.Caviar.2018.720p.BluRay.x264-BRMP 5.49GB

[复制链接]
百度云电影 发表于 2019-9-12 08:09:00 | 显示全部楼层 |阅读模式





帖子完整标题:路易斯安纳鱼子酱 Bayou.Caviar.2018.720p.BluRay.x264-BRMP 5.49GB





◎译  名 路易斯安纳鱼子酱 / Burbank Caviar / Louisiana Caviar
◎片  名 Bayou Caviar
◎年  代 2018
◎产  地 美国
◎类  别 剧情
◎语  言 英语
◎上映日期 2018-10-05(美国)
◎IMDb评分  5.9/10 from 1141 users
◎片  长 111分钟
◎导  演 小库珀·古丁 Cuba Gooding Jr.
◎编  剧 小库珀·古丁 Cuba Gooding Jr. / Eitan Gorlin
◎主  演 小库珀·古丁 Cuba Gooding Jr.
       法米克·詹森 Famke Janssen
       理查德·德莱弗斯 Richard Dreyfuss


◎标  签 美国 | 犯罪 | 剧情 | 2018 | 小库珀·古丁 | 美国电影 | 网络大电影 | 电影

◎简  介  

  前冠军拳击手Rodney原先过着洗尽铅华的生活,在夜店担任保安工作,却在一次前往医院探病,看望病榻上的前教练及人生导师的过程中,被意外激发,重新踏上了扭转人生际遇的旅途。他与法米克?约翰逊饰演的同性恋摄影师Nic连手,找来一位菜鸟小女星和已婚且虔诚的东正教犹太房地产大亨 Isaac合力设局,一同拍摄情色影带。在经过一连串的精密设计和布局后,成功搞垮由Dreyfuss’s Yuri控制的黑暗地下势力。
Video
ID                                       : 1
Format                                   : AVC
Format/Info                              : Advanced Video Codec
Format settings                          : CABAC / 5 Ref Frames
Format settings, CABAC                   : Yes
Format settings, Reference frames        : 5 frames
Codec ID                                 : V_MPEG4/ISO/AVC
Duration                                 : 1 h 51 min
Bit rate                                 : 5 538 kb/s
Width                                    : 1 280 pixels
Height                                   : 536 pixels
Display aspect ratio                     : 2.40:1
Frame rate mode                          : Constant
Frame rate                               : 23.976 (24000/1001) FPS
Color space                              : YUV
Chroma subsampling                       : 4:2:0
Bit depth                                : 8 bits
Scan type                                : Progressive
Bits/(Pixel*Frame)                       : 0.337
Stream size                              : 4.30 GiB (79%)
Writing library                          : x264 core 157 r2969 d4099dd
Encoding settings                        : cabac=1 / ref=5 / deblock=1:0:0 / analyse=0x3:0x133 / me=umh / subme=7 / psy=1 / psy_rd=1.00:0.00 / mixed_ref=1 / me_range=16 / chroma_me=1 / trellis=1 / 8x8dct=1 / cqm=0 / deadzone=21,11 / fast_pskip=0 / chroma_qp_offset=-2 / threads=17 / lookahead_threads=2 / sliced_threads=0 / nr=0 / decimate=1 / interlaced=0 / bluray_compat=0 / constrained_intra=0 / bframes=3 / b_pyramid=2 / b_adapt=1 / b_bias=0 / direct=1 / weightb=1 / open_gop=0 / weightp=2 / keyint=240 / keyint_min=23 / scenecut=40 / intra_refresh=0 / rc_lookahead=40 / rc=2pass / mbtree=1 / bitrate=5538 / ratetol=1.0 / qcomp=0.60 / qpmin=10 / qpmax=51 / qpstep=4 / cplxblur=20.0 / qblur=0.5 / ip_ratio=1.40 / aq=1:1.00
Default                                  : Yes
Forced                                   : No

Audio
ID                                       : 2
Format                                   : DTS
Format/Info                              : Digital Theater Systems
Codec ID                                 : A_DTS
Duration                                 : 1 h 51 min
Bit rate mode                            : Constant
Bit rate                                 : 1 509 kb/s
Channel(s)                               : 6 channels
Channel layout                           : C L R Ls Rs LFE
Sampling rate                            : 48.0 kHz
Frame rate                               : 93.750 FPS (512 SPF)
Bit depth                                : 24 bits
Compression mode                         : Lossy
Stream size                              : 1.17 GiB (21%)
Language                                 : English
Default                                  : Yes
Forced                                   : No

Menu
00:00:00.000                             : en:Chapter 01
00:06:22.549                             : en:Chapter 02
00:13:57.670                             : en:Chapter 03
00:21:27.828                             : en:Chapter 04
00:33:10.113                             : en:Chapter 05
00:43:36.531                             : en:Chapter 06
00:53:10.396                             : en:Chapter 07
01:03:14.416                             : en:Chapter 08
01:13:20.771                             : en:Chapter 09
01:23:11.361                             : en:Chapter 10
01:33:02.368                             : en:Chapter 11
01:43:02.760                             : en:Chapter 12




                                                                                                                                                                                                        
                                                                                                                                                                                                                                                                                                                                                                                                                                                                                                                                                                                                                                                                                                                                                                                                                                                      
030fefcb2110003577f746dff9bf0a1b.torrent (28.28 KB, 下载次数: 0)

回复

使用道具 举报

小黑屋|百度云资源论坛 ( 闽ICP备16005822号-1 )

本网站所有资源来自网络,如无意中侵犯了您的权益,请发邮件至 [email protected],立即清除相关链接

GMT+8, 2019-9-20 03:58 , Processed in 0.062553 second(s), 19 queries .

Powered by Discuz! X3.2

© 2001-2013 Comsenz Inc.

快速回复 返回顶部 返回列表