百度云资源论坛

 找回密码
 立即注册
搜索
热搜: 百度云资源
开启左侧

枪杀 London.Heist.2017.720p.BluRay.x264-WiSDOM 4.37GB

[复制链接]
百度云资源 发表于 2019-9-12 08:09:03 | 显示全部楼层 |阅读模式


帖子完整标题:枪杀 London.Heist.2017.720p.BluRay.x264-WiSDOM 4.37GB





◎译  名 枪杀 / Gunned Down
◎片  名 London Heist
◎年  代 2017
◎产  地 英国
◎类  别 动作 / 惊悚
◎语  言 英语
◎上映日期 2017-07-17(英国)
◎IMDb评分  5.1/10 from 719 users
◎片  长 95分钟
◎导  演 马克·麦奎因 Mark McQueen
◎编  剧 克雷格·法布拉斯 Craig Fairbrass / Chris Regan
◎主  演 克雷格·法布拉斯 Craig Fairbrass
       詹姆斯·卡沙莫 James Cosmo
       M·费尔达 Mem Ferda
       尼克·莫兰 Nick Moran
       史蒂文·伯克夫 Steven Berkoff
       娜塔莉·考克斯 Nathalie Cox


◎标  签 英国 | 动作 | 犯罪 | 冒险 | 2017 | 貌似一般 | 剧情,英国,动作,冒险,2017,伦敦,爱丁堡,苏格兰 | 剧情

◎简  介  

  职业抢劫犯杰克为了挖掘父亲被谋杀的真相,找到他被偷的钱,面临生命危险。很快他发现自己陷入了无可挽回的困境。西班牙的美丽风光以及伦敦黑暗的地下世界里,他和神秘的敌对力量展开搏斗,在寻求复仇的同时,背后还有一群黑帮罪犯和警察在追捕他。
Video
ID                                       : 1
Format                                   : AVC
Format/Info                              : Advanced Video Codec
Format settings                          : CABAC / 5 Ref Frames
Format settings, CABAC                   : Yes
Format settings, Reference frames        : 5 frames
Codec ID                                 : V_MPEG4/ISO/AVC
Duration                                 : 1 h 35 min
Bit rate                                 : 5 065 kb/s
Width                                    : 1 280 pixels
Height                                   : 720 pixels
Display aspect ratio                     : 16:9
Frame rate mode                          : Constant
Frame rate                               : 23.976 (24000/1001) FPS
Color space                              : YUV
Chroma subsampling                       : 4:2:0
Bit depth                                : 8 bits
Scan type                                : Progressive
Bits/(Pixel*Frame)                       : 0.229
Stream size                              : 3.37 GiB (77%)
Writing library                          : x264 core 157 r2969 d4099dd
Encoding settings                        : cabac=1 / ref=5 / deblock=1:0:0 / analyse=0x3:0x113 / me=umh / subme=8 / psy=1 / psy_rd=1.00:0.00 / mixed_ref=1 / me_range=16 / chroma_me=1 / trellis=2 / 8x8dct=1 / cqm=0 / deadzone=21,11 / fast_pskip=0 / chroma_qp_offset=-2 / threads=12 / lookahead_threads=2 / sliced_threads=0 / nr=0 / decimate=1 / interlaced=0 / bluray_compat=0 / constrained_intra=0 / bframes=3 / b_pyramid=2 / b_adapt=1 / b_bias=0 / direct=1 / weightb=1 / open_gop=0 / weightp=2 / keyint=250 / keyint_min=23 / scenecut=40 / intra_refresh=0 / rc_lookahead=50 / rc=2pass / mbtree=1 / bitrate=5065 / ratetol=1.0 / qcomp=0.60 / qpmin=0 / qpmax=69 / qpstep=4 / cplxblur=20.0 / qblur=0.5 / ip_ratio=1.40 / aq=1:1.00
Default                                  : Yes
Forced                                   : No

Audio
ID                                       : 2
Format                                   : DTS
Format/Info                              : Digital Theater Systems
Codec ID                                 : A_DTS
Duration                                 : 1 h 35 min
Bit rate mode                            : Constant
Bit rate                                 : 1 509 kb/s
Channel(s)                               : 6 channels
Channel layout                           : C L R Ls Rs LFE
Sampling rate                            : 48.0 kHz
Frame rate                               : 93.750 FPS (512 SPF)
Bit depth                                : 24 bits
Compression mode                         : Lossy
Stream size                              : 1.00 GiB (23%)
Language                                 : English
Default                                  : No
Forced                                   : No

Menu
00:00:00.000                             : en:00:00:00.000
00:09:22.645                             : en:00:09:22.645
00:18:55.134                             : en:00:18:55.134
00:28:09.563                             : en:00:28:09.563
00:35:59.783                             : en:00:35:59.783
00:45:45.576                             : en:00:45:45.576
00:54:20.591                             : en:00:54:20.591
01:01:03.618                             : en:01:01:03.618
01:10:03.866                             : en:01:10:03.866
01:17:54.378                             : en:01:17:54.378
01:26:37.692                             : en:01:26:37.692
01:32:28.918                             : en:01:32:28.918




                                                                                                                                                                                                        
                                                                                                                                                                                                                                                                                                                                                                                                                                                                                                                                                                                                                                                                                                                                                                                                                                                      
e10583ff49309875400c77f57cec9a7c.torrent (44.35 KB, 下载次数: 0)

回复

使用道具 举报

小黑屋|百度云资源论坛 ( 闽ICP备16005822号-1 )

本网站所有资源来自网络,如无意中侵犯了您的权益,请发邮件至 [email protected],立即清除相关链接

GMT+8, 2019-9-20 03:57 , Processed in 0.083940 second(s), 19 queries .

Powered by Discuz! X3.2

© 2001-2013 Comsenz Inc.

快速回复 返回顶部 返回列表