百度云资源论坛

 找回密码
 立即注册
搜索
热搜: 百度云资源
开启左侧

计划外/不在计划内 Unplanned.2019.720p.BluRay.X264-AMIABLE 4.39GB

[复制链接]
百度云资源 发表于 2019-9-12 08:09:04 | 显示全部楼层 |阅读模式




帖子完整标题:计划外/不在计划内 Unplanned.2019.720p.BluRay.X264-AMIABLE 4.39GB





◎译  名 计划外 / 不在计划内
◎片  名 Unplanned
◎年  代 2019
◎产  地 美国
◎类  别 剧情
◎语  言 英语
◎上映日期 2019-03-29(美国)
◎IMDb评分  5.8/10 from 8770 users
◎片  长 106分钟
◎导  演 查克·康策尔曼 Chuck Konzelman / 卡里·所罗门 Cary Solomon
◎编  剧 卡里·所罗门 Cary Solomon / 查克·康策尔曼 Chuck Konzelman
◎主  演 阿什利·布拉彻 Ashley Bratcher
       布鲁克斯·赖恩 Brooks Ryan
       罗比亚·拉莫特 Robia LaMorte
       贾里德·勒茨 Jared Lotz
       艾玛·埃尔·罗伯茨 Emma Elle Roberts
       罗宾·德马克 Robin DeMarco
       罗伯特·托马森 Robert Thomason
       蒂娜·托纳 Tina Toner
       萨拉·埃尔南德斯 Sarah Hernandez
       莫拉·科西尼 Maura Corsini
       托德·特里 Todd Terry
       吉娜·斯科尔斯 Gina Scoles


◎标  签 美国 | 堕胎 | 2019 | 剧情 | 计划生育 | 伦理 | 女性 | 基督

◎简  介  

  作为全国最年轻的计划生育诊所主任之一,艾比·约翰逊(Abby Johnson)参与了超过2.2万例堕胎,并为无数妇女提供生育选择方面的咨询。她对妇女选择权的热情促使她成为计划生育的代言人,为她深信不疑的事业而努力制定法律。直到有一天她看到了改变一切的东西。
Video
ID                                       : 1
Format                                   : AVC
Format/Info                              : Advanced Video Codec
Format settings                          : CABAC / 5 Ref Frames
Format settings, CABAC                   : Yes
Format settings, Reference frames        : 5 frames
Codec ID                                 : V_MPEG4/ISO/AVC
Duration                                 : 1 h 49 min
Bit rate                                 : 4 216 kb/s
Width                                    : 1 280 pixels
Height                                   : 536 pixels
Display aspect ratio                     : 2.40:1
Frame rate mode                          : Constant
Frame rate                               : 23.976 (24000/1001) FPS
Color space                              : YUV
Chroma subsampling                       : 4:2:0
Bit depth                                : 8 bits
Scan type                                : Progressive
Bits/(Pixel*Frame)                       : 0.256
Stream size                              : 3.13 GiB (72%)
Writing library                          : x264 core 158 r2984 3759fcb
Encoding settings                        : cabac=1 / ref=5 / deblock=1:-3:-3 / analyse=0x3:0x113 / me=umh / subme=8 / psy=1 / psy_rd=1.00:0.00 / mixed_ref=1 / me_range=24 / chroma_me=1 / trellis=2 / 8x8dct=1 / cqm=0 / deadzone=21,11 / fast_pskip=1 / chroma_qp_offset=-2 / threads=17 / lookahead_threads=2 / sliced_threads=0 / nr=0 / decimate=1 / interlaced=0 / bluray_compat=0 / constrained_intra=0 / bframes=3 / b_pyramid=2 / b_adapt=2 / b_bias=0 / direct=3 / weightb=1 / open_gop=0 / weightp=2 / keyint=240 / keyint_min=24 / scenecut=40 / intra_refresh=0 / rc_lookahead=50 / rc=2pass / mbtree=1 / bitrate=4216 / ratetol=1.0 / qcomp=0.60 / qpmin=0 / qpmax=69 / qpstep=4 / cplxblur=20.0 / qblur=0.5 / ip_ratio=1.40 / aq=3:0.80
Default                                  : Yes
Forced                                   : No
Statistics Tags Issue                    : no_variable_data 1970-01-01 00:00:00 / no_variable_data 2010-02-22 21:41:29
FromStats_BitRate                        : 4216099
FromStats_Duration                       : 01:49:15.883000000
FromStats_FrameCount                     : 157184
FromStats_StreamSize                     : 3455031929

Audio
ID                                       : 2
Format                                   : DTS
Format/Info                              : Digital Theater Systems
Codec ID                                 : A_DTS
Duration                                 : 1 h 49 min
Bit rate mode                            : Constant
Bit rate                                 : 1 509 kb/s
Channel(s)                               : 6 channels
Channel layout                           : C L R Ls Rs LFE
Sampling rate                            : 48.0 kHz
Frame rate                               : 93.750 FPS (512 SPF)
Bit depth                                : 24 bits
Compression mode                         : Lossy
Stream size                              : 1.15 GiB (26%)
Language                                 : English
Default                                  : Yes
Forced                                   : No
Statistics Tags Issue                    : no_variable_data 1970-01-01 00:00:00 / no_variable_data 2010-02-22 21:41:29
FromStats_BitRate                        : 1508999
FromStats_Duration                       : 01:49:15.851000000
FromStats_FrameCount                     : 614611
FromStats_StreamSize                     : 1236597332

Text #1
ID                                       : 3
Format                                   : UTF-8
Codec ID                                 : S_TEXT/UTF8
Codec ID/Info                            : UTF-8 Plain Text
Language                                 : English
Default                                  : No
Forced                                   : No
Statistics Tags Issue                    : no_variable_data 1970-01-01 00:00:00 / no_variable_data 2010-02-22 21:41:29
FromStats_BitRate                        : 85
FromStats_Duration                       : 01:49:03.578000000
FromStats_FrameCount                     : 1973
FromStats_StreamSize                     : 70218

Text #2
ID                                       : 4
Format                                   : UTF-8
Codec ID                                 : S_TEXT/UTF8
Codec ID/Info                            : UTF-8 Plain Text
Title                                    : SDH
Language                                 : English
Default                                  : No
Forced                                   : No
Statistics Tags Issue                    : no_variable_data 1970-01-01 00:00:00 / no_variable_data 2010-02-22 21:41:29
FromStats_BitRate                        : 92
FromStats_Duration                       : 01:49:05.622000000
FromStats_FrameCount                     : 2132
FromStats_StreamSize                     : 75294

Menu
00:00:00.000                             : en:Chapter 01
00:03:29.543                             : en:Chapter 02
00:08:00.063                             : en:Chapter 03
00:15:38.479                             : en:Chapter 04
00:22:32.393                             : en:Chapter 05
00:38:29.349                             : en:Chapter 06
00:55:31.703                             : en:Chapter 07
01:08:45.121                             : en:Chapter 08
01:24:08.418                             : en:Chapter 09
01:35:30.058                             : en:Chapter 10
01:43:12.436                             : en:Chapter 11
01:49:15.382                             : en:Chapter 12




                                                                                                                                                                                                        
                                                                                                                                                                                                                                                                                                                                                                                                                                                                                                                                                                                                                                                                                                                                                                                                                                                      
43c93d0c6ee35f03f05ce40d3dc25fb4.torrent (44.7 KB, 下载次数: 0)

回复

使用道具 举报

小黑屋|百度云资源论坛 ( 闽ICP备16005822号-1 )

本网站所有资源来自网络,如无意中侵犯了您的权益,请发邮件至 [email protected],立即清除相关链接

GMT+8, 2019-9-20 03:55 , Processed in 0.076846 second(s), 19 queries .

Powered by Discuz! X3.2

© 2001-2013 Comsenz Inc.

快速回复 返回顶部 返回列表