百度云资源论坛

 找回密码
 立即注册
搜索
热搜: 百度云资源
开启左侧

海豚踢/泳不放棄 Dolphin.Kick.2019.720p.BluRay.x264-GETiT 4.37GB

[复制链接]
百度云资源 发表于 2019-9-12 08:09:07 | 显示全部楼层 |阅读模式





帖子完整标题:海豚踢/泳不放棄 Dolphin.Kick.2019.720p.BluRay.x264-GETiT 4.37GB





◎译  名 海豚踢 / 泳不放棄(台)
◎片  名 Dolphin Kick
◎年  代 2018
◎产  地 美国
◎类  别 冒险
◎语  言 英语
◎IMDb评分  5.8/10 from 53 users
◎导  演 Philip Marlatt
◎编  剧 Philip Marlatt / Travis McCoy
◎主  演 Tyler Jade Nixon
      Axle McCoy
      Travis McCoy
      Maya Simmons
      DeVaughn Gow
      Alexis Louder
      Quddus Newton
      Tim Ogletree
      LaVaughan Hamilton
      Tomii Culmer
      Jordan Pedreira
      Erin Reign
      Matthew Scott Miller


◎标  签 科幻 | 生活 | 审片 | 人性

◎简  介  

  讲述一个有天赋的运动员、10岁男孩卢克在经历了惨痛的失败后失去了对水的热情,在一场急需的家庭旅行中,他在巴哈马一个美丽度假胜地遇见了一只好奇又友好的海豚,他们在一起的时光改变了各自的命运,创造了一种永恒的纽带。

Video
ID                                       : 1
Format                                   : AVC
Format/Info                              : Advanced Video Codec
Format settings                          : CABAC / 5 Ref Frames
Format settings, CABAC                   : Yes
Format settings, Reference frames        : 5 frames
Codec ID                                 : V_MPEG4/ISO/AVC
Duration                                 : 1 h 29 min
Bit rate                                 : 5 449 kb/s
Width                                    : 1 280 pixels
Height                                   : 720 pixels
Display aspect ratio                     : 16:9
Frame rate mode                          : Constant
Frame rate                               : 23.976 (24000/1001) FPS
Color space                              : YUV
Chroma subsampling                       : 4:2:0
Bit depth                                : 8 bits
Scan type                                : Progressive
Bits/(Pixel*Frame)                       : 0.247
Stream size                              : 3.34 GiB (76%)
Writing library                          : x264 core 157 r2969 d4099dd
Encoding settings                        : cabac=1 / ref=5 / deblock=1:-2:-2 / analyse=0x3:0x113 / me=umh / subme=8 / psy=1 / psy_rd=1.00:0.00 / mixed_ref=1 / me_range=16 / chroma_me=1 / trellis=2 / 8x8dct=1 / cqm=0 / deadzone=21,11 / fast_pskip=0 / chroma_qp_offset=-2 / threads=22 / lookahead_threads=3 / sliced_threads=0 / nr=0 / decimate=1 / interlaced=0 / bluray_compat=0 / constrained_intra=0 / bframes=3 / b_pyramid=2 / b_adapt=2 / b_bias=0 / direct=3 / weightb=1 / open_gop=0 / weightp=2 / keyint=240 / keyint_min=24 / scenecut=40 / intra_refresh=0 / rc_lookahead=50 / rc=2pass / mbtree=1 / bitrate=5449 / ratetol=1.0 / qcomp=0.60 / qpmin=0 / qpmax=69 / qpstep=4 / cplxblur=20.0 / qblur=0.5 / ip_ratio=1.40 / aq=1:1.00
Language                                 : English
Default                                  : Yes
Forced                                   : No

Audio
ID                                       : 2
Format                                   : DTS
Format/Info                              : Digital Theater Systems
Codec ID                                 : A_DTS
Duration                                 : 1 h 29 min
Bit rate mode                            : Constant
Bit rate                                 : 1 509 kb/s
Channel(s)                               : 6 channels
Channel layout                           : C L R Ls Rs LFE
Sampling rate                            : 48.0 kHz
Frame rate                               : 93.750 FPS (512 SPF)
Bit depth                                : 24 bits
Compression mode                         : Lossy
Stream size                              : 970 MiB (22%)
Language                                 : English
Default                                  : Yes
Forced                                   : No

Menu
00:00:00.000                             : en:00:00:00.000
00:07:40.251                             : en:00:07:40.251
00:14:42.090                             : en:00:14:42.090
00:23:14.893                             : en:00:23:14.893
00:30:15.397                             : en:00:30:15.397
00:37:51.436                             : en:00:37:51.436
00:44:02.598                             : en:00:44:02.598
00:49:55.075                             : en:00:49:55.075
00:56:58.582                             : en:00:56:58.582
01:03:52.579                             : en:01:03:52.579
01:11:29.118                             : en:01:11:29.118
01:21:04.777                             : en:01:21:04.777




                                                                                                                                                                                                        
                                                                                                                                                                                                                                                                                                                                                                                                                                                                                                                                                                                                                                                                                                                                                                                                                                                      
38120cd2bb540399813010609c638ae5.torrent (44.4 KB, 下载次数: 0)

回复

使用道具 举报

小黑屋|百度云资源论坛 ( 闽ICP备16005822号-1 )

本网站所有资源来自网络,如无意中侵犯了您的权益,请发邮件至 [email protected],立即清除相关链接

GMT+8, 2019-9-20 03:54 , Processed in 0.083837 second(s), 19 queries .

Powered by Discuz! X3.2

© 2001-2013 Comsenz Inc.

快速回复 返回顶部 返回列表