百度云资源论坛

 找回密码
 立即注册
搜索
热搜: 百度云资源
开启左侧

死亡来临 South.Of.Heaven.2021.720p.BluRay.x264.DTS-MT 5.12GB

[复制链接]
百度云电影 发表于 2021-12-15 10:43:27 | 显示全部楼层 |阅读模式
死亡来临 South.Of.Heaven.2021.720p.BluRay.x264.DTS-MT 5.12GB                                                                                                                                                                                                                                                                                                                                                                                                                                                                                                                                        -->
帖子完整标题:死亡来临 South.Of.Heaven.2021.720p.BluRay.x264.DTS-MT 5.12GB



cbae225024be32b74d94348488217efe.jpg



◎译  名 死亡来临/Till Death/死亡来临前
◎片  名 South of Heaven
◎年  代 2021
◎产  地 美国
◎类  别 动作 / 惊悚
◎语  言 英语
◎上映日期 2021-10-08(美国)
◎豆瓣评分 6.2/10 from 107 users
◎豆瓣链接 
◎片  长 120分钟
◎导  演 亚伦·凯莎莱斯 Aharon Keshales
◎编  剧 亚伦·凯莎莱斯 Aharon Keshales / 纳沃特·帕普莎多 Navot Papushado
◎主  演 杰森·苏戴奇斯 Jason Sudeikis
       伊万杰琳·莉莉 Evangeline Lilly

◎标  签 犯罪 | 动作 | 美国 | 惊悚 | 2021 | 伊万杰琳·莉莉 | 美国电影 | 剧情

◎简  介

  杰森·苏戴奇斯、伊万杰琳·莉莉将主演动作惊悚片[死亡来临](Till Death),亚伦·凯莎莱斯([大坏狼])执导,亚伦与纳沃特·帕普莎多、Kai Mark共同操刀剧本。影片故事讲述因持枪抢劫而被判重罪的吉米在服刑12年后,获得假释。而此时,他的童年旧爱安妮身患癌症,即将离世。获释后的他发誓要给安妮最好的临终时刻。不幸的是,一切都没那么简单。影片将于2020年1月开拍。
Video
ID                                       : 1
Format                                   : AVC
Format/Info                              : Advanced Video Codec
Format profile                           :
Format settings                          : CABAC / 11 Ref Frames
Format settings, CABAC                   : Yes
Format settings, Reference frames        : 11 frames
Codec ID                                 : V_MPEG4/ISO/AVC
Duration                                 : 1 h 59 min
Bit rate                                 : 4 606 kb/s
Width                                    : 1 280 pixels
Height                                   : 546 pixels
Display aspect ratio                     : 2.35:1
Frame rate mode                          : Constant
Frame rate                               : 23.976 (24000/1001/189150) FPS
Color space                              : YUV
Chroma subsampling                       : 4:2:0
Bit depth                                : 8 bits
Scan type                                : Progressive
Bits/(Pixel*Frame)                       : 0.275
Stream size                              : 3.85 GiB (75%)
Writing library                          : x264 core 157 r2938 2b00a84  Mod
Encoding settings                        : cabac=1 / ref=11 / deblock=1:-3:-3 / analyse=0x3:0x133 / me=umh / subme=10 / psy=1 / psy_rd=1.05:0.00 / mixed_ref=1 / me_range=32 / chroma_me=1 / trellis=2 / 8x8dct=1 / cqm=0 / deadzone=21,11 / fast_pskip=0 / chroma_qp_offset=-2 / threads=12 / lookahead_threads=2 / sliced_threads=0 / nr=0 / decimate=0 / interlaced=0 / bluray_compat=0 / constrained_intra=0 / bframes=8 / b_pyramid=2 / b_adapt=2 / b_bias=0 / direct=3 / weightb=1 / open_gop=0 / weightp=2 / keyint=250 / keyint_min=24 / scenecut=40 / intra_refresh=0 / rc_lookahead=250 / rc=crf / mbtree=0 / crf=16.8 / qcomp=0.60 / qpmin=0 / qpmax=69 / qpstep=4 / vbv_maxrate=62500 / vbv_bufsize=78125 / crf_max=0.0 / nal_hrd=none / filler=0 / ip_ratio=1.30 / pb_ratio=1.20 / aq=3:0.80
Language                                 : English
Default                                  : Yes
Forced                                   : No
Color range                              : Limited
Color primaries                          : BT.709
Matrix coefficients                      : BT.709

Audio
ID                                       : 2
Format                                   : DTS
Format/Info                              : Digital Theater Systems
Codec ID                                 : A_DTS
Duration                                 : 1 h 59 min
Bit rate mode                            : Constant
Bit rate                                 : 1 509 kb/s
Channel(s)                               : 6 channels
Channel layout                           : C L R Ls Rs LFE
Sampling rate                            : 48.0 kHz
Frame rate                               : 93.750 FPS (512 SPF)
Bit depth                                : 24 bits
Compression mode                         : Lossy
Stream size                              : 1.26 GiB (25%)
Language                                 : English
Default                                  : Yes
Forced                                   : No

Text #1
ID                                       : 3
Format                                   : UTF-8
Codec ID                                 : S_TEXT/UTF8
Codec ID/Info                            : UTF-8 Plain Text
Duration                                 : 1 h 59 min
Bit rate                                 : 47 b/s
Count of elements                        : 1477
Stream size                              : 42.0 KiB (0%)
Language                                 : English
Default                                  : Yes
Forced                                   : No

Text #2
ID                                       : 4
Format                                   : UTF-8
Codec ID                                 : S_TEXT/UTF8
Codec ID/Info                            : UTF-8 Plain Text
Duration                                 : 1 h 59 min
Bit rate                                 : 54 b/s
Count of elements                        : 1755
Stream size                              : 47.9 KiB (0%)
Title                                    : SDH
Language                                 : English
Default                                  : No
Forced                                   : No

Menu
00:00:00.000                             : en:Chapter 01
00:14:47.720                             : en:Chapter 02
00:30:47.846                             : en:Chapter 03
00:46:39.839                             : en:Chapter 04
00:58:41.226                             : en:Chapter 05
01:14:39.308                             : en:Chapter 06
01:32:09.023                             : en:Chapter 07
01:56:54.633                             : en:Chapter 08

7dbbdfdeedebc898d4fe5b3b4f53387e.png

[/url]d89f9c4cf955b2e295111d777b482699.png

[/url]



                                                                                                                                                                                                        
                                                                                                                                                                                                                                                                                                                                                                                                                                                                                                                                                                                                                                                                                                                                                                                                                                                        
b79dbca6b798a835207ca850ffc02ba7.torrent (13.4 KB, 下载次数: 0)

回复

使用道具 举报

小黑屋|百度云资源论坛 ( 闽ICP备16005822号-1 )

本网站所有资源来自网络,如无意中侵犯了您的权益,请发邮件至 [email protected],立即清除相关链接

GMT+8, 2022-8-10 03:59 , Processed in 0.069541 second(s), 17 queries .

Powered by Discuz! X3.4

© 2001-2017 Comsenz Inc.

快速回复 返回顶部 返回列表