百度云资源论坛

 找回密码
 立即注册
搜索
热搜: 百度云资源
开启左侧

宫廷小丑/柯特.杰斯特 The.Court.Jester.1955.720p.BluRay.x264-GUACAMOLE 5.91GB ... ...

[复制链接]
百度云电影 发表于 2021-12-15 10:43:29 | 显示全部楼层 |阅读模式
宫廷小丑/柯特.杰斯特 The.Court.Jester.1955.720p.BluRay.x264-GUACAMOLE 5.91GB                                                                                                                                                                                                                                                                                                                                                                                                                                                                                                                                        -->
帖子完整标题:宫廷小丑/柯特.杰斯特 The.Court.Jester.1955.720p.BluRay.x264-GUACAMOLE 5.91GB



b9b379d14e03fa1024fb7b3fd48a0e4f.jpg



◎译  名 宫廷小丑/柯特.杰斯特/金殿福星(港/台)
◎片  名 The Court Jester
◎年  代 1955
◎产  地 美国
◎类  别 喜剧 / 歌舞 / 家庭 / 冒险
◎语  言 英语
◎上映日期 1955-12-25
◎豆瓣评分 /10 from 0 users
◎豆瓣链接 
◎片  长 101 分钟
◎导  演 梅尔文·弗兰克 Melvin Frank / 诺曼·巴拿马 Norman Panama
◎编  剧 梅尔文·弗兰克 Melvin Frank / 诺曼·巴拿马 Norman Panama
◎主  演 丹尼·凯耶 Danny Kaye
       格莱妮丝·约翰斯 Glynis Johns
       巴兹尔·拉思伯恩 Basil Rathbone
       赫伯特·鲁德利 Herbert Rudley

◎标  签 喜剧 | 美国 | 美国电影 | 1955 | 儿童 | 歌舞 | 昆汀·塔伦蒂诺 | 音乐

◎简  介

  残暴的拉雷(西塞尔·帕克 Cecil Parker 饰)屠杀了整个王室,自称为王。一个尚在襁褓之中的小婴儿逃过一劫,被代号黑狐(丹尼·凯耶 Danny Kaye 饰)的秘密英雄所救。在手下霍金斯(丹尼·凯耶 Danny Kaye 饰)和梅姬(格莱妮丝·约翰斯 Glynis Johns 饰)的帮助下,一行人带着皇族最后的正统血脉小王子踏上了逃亡的旅途。
  
  与此同时,拉雷为了平定内乱,派出了美丽的关德林公主(安吉拉·兰斯伯瑞 Angela Lansbury 饰),想要利用她的美貌得到爵士格力斯的效忠。哪知道在阴差阳错之下,霍金斯竟然也爱上了关德林公主,于是他和格力斯之间开始了一场决斗。

◎获奖情况

  第14届金球奖 ?(1957)
  电影类音乐/喜剧片最佳男主角(提名) 丹尼·凯耶
Video
ID                                       : 1
Format                                   : AVC
Format/Info                              : Advanced Video Codec
Format profile                           :
Format settings                          : CABAC / 8 Ref Frames
Format settings, CABAC                   : Yes
Format settings, Reference frames        : 8 frames
Codec ID                                 : V_MPEG4/ISO/AVC
Duration                                 : 1 h 41 min
Bit rate                                 : 8 074 kb/s
Width                                    : 1 280 pixels
Height                                   : 720 pixels
Display aspect ratio                     : 16:9
Frame rate mode                          : Constant
Frame rate                               : 23.976 (24000/1001/189150) FPS
Color space                              : YUV
Chroma subsampling                       : 4:2:0
Bit depth                                : 8 bits
Scan type                                : Progressive
Bits/(Pixel*Frame)                       : 0.365
Stream size                              : 5.71 GiB (97%)
Writing library                          : x264 core 164 r3075 66a5bc1
Encoding settings                        : cabac=1 / ref=8 / deblock=1:-3:-3 / analyse=0x3:0x133 / me=umh / subme=9 / psy=1 / psy_rd=1.00:0.00 / mixed_ref=1 / me_range=16 / chroma_me=1 / trellis=2 / 8x8dct=1 / cqm=0 / deadzone=21,11 / fast_pskip=0 / chroma_qp_offset=-2 / threads=22 / lookahead_threads=1 / sliced_threads=0 / nr=0 / decimate=1 / interlaced=0 / bluray_compat=0 / constrained_intra=0 / bframes=3 / b_pyramid=2 / b_adapt=2 / b_bias=0 / direct=3 / weightb=1 / open_gop=0 / weightp=2 / keyint=250 / keyint_min=23 / scenecut=40 / intra_refresh=0 / rc_lookahead=60 / rc=crf / mbtree=1 / crf=18.0 / qcomp=0.60 / qpmin=0 / qpmax=69 / qpstep=4 / ip_ratio=1.40 / aq=3:0.60
Default                                  : Yes
Forced                                   : No
Color range                              : Limited
Matrix coefficients                      : BT.709

Audio
ID                                       : 2
Format                                   : FLAC
Format/Info                              : Free Lossless Audio Codec
Codec ID                                 : A_FLAC
Duration                                 : 1 h 41 min
Bit rate mode                            : Variable
Bit rate                                 : 223 kb/s
Channel(s)                               : 2 channels
Channel layout                           : L R
Sampling rate                            : 48.0 kHz
Frame rate                               : 11.719 FPS (4096 SPF)
Bit depth                                : 16 bits
Compression mode                         : Lossless
Stream size                              : 162 MiB (3%)
Writing library                          : libFLAC 1.2.1 (UTC 2007-09-17)
Language                                 : English
Default                                  : Yes
Forced                                   : No

Text #1
ID                                       : 3
Format                                   : PGS
Muxing mode                              : zlib
Codec ID                                 : S_HDMV/PGS
Codec ID/Info                            : Picture based subtitle format used on BDs/HD-DVDs
Duration                                 : 1 h 40 min
Bit rate                                 : 52.5 kb/s
Count of elements                        : 3534
Stream size                              : 37.8 MiB (1%)
Language                                 : English
Default                                  : No
Forced                                   : No

Text #2
ID                                       : 4
Format                                   : PGS
Muxing mode                              : zlib
Codec ID                                 : S_HDMV/PGS
Codec ID/Info                            : Picture based subtitle format used on BDs/HD-DVDs
Duration                                 : 1 h 41 min
Bit rate                                 : 56.6 kb/s
Count of elements                        : 3864
Stream size                              : 40.9 MiB (1%)
Language                                 : English
Default                                  : No
Forced                                   : No

Text #3
ID                                       : 5
Format                                   : PGS
Muxing mode                              : zlib
Codec ID                                 : S_HDMV/PGS
Codec ID/Info                            : Picture based subtitle format used on BDs/HD-DVDs
Duration                                 : 1 h 40 min
Bit rate                                 : 48.3 kb/s
Count of elements                        : 3118
Stream size                              : 34.7 MiB (1%)
Language                                 : French
Default                                  : No
Forced                                   : No

Text #4
ID                                       : 6
Format                                   : PGS
Muxing mode                              : zlib
Codec ID                                 : S_HDMV/PGS
Codec ID/Info                            : Picture based subtitle format used on BDs/HD-DVDs
Duration                                 : 1 h 40 min
Bit rate                                 : 53.8 kb/s
Count of elements                        : 3120
Stream size                              : 38.7 MiB (1%)
Language                                 : German
Default                                  : No
Forced                                   : No

Text #5
ID                                       : 7
Format                                   : PGS
Muxing mode                              : zlib
Codec ID                                 : S_HDMV/PGS
Codec ID/Info                            : Picture based subtitle format used on BDs/HD-DVDs
Duration                                 : 1 h 40 min
Bit rate                                 : 7 156 b/s
Count of elements                        : 430
Stream size                              : 5.14 MiB (0%)
Language                                 : German
Default                                  : No
Forced                                   : No

Text #6
ID                                       : 8
Format                                   : PGS
Muxing mode                              : zlib
Codec ID                                 : S_HDMV/PGS
Codec ID/Info                            : Picture based subtitle format used on BDs/HD-DVDs
Duration                                 : 1 h 40 min
Bit rate                                 : 6 147 b/s
Count of elements                        : 422
Stream size                              : 4.42 MiB (0%)
Language                                 : French
Default                                  : No
Forced                                   : No

Menu
00:00:00.000                             : en:00:00:00.000
00:03:12.943                             : en:00:03:12.943
00:04:19.926                             : en:00:04:19.926
00:07:35.914                             : en:00:07:35.914
00:10:25.333                             : en:00:10:25.333
00:13:14.669                             : en:00:13:14.669
00:17:17.161                             : en:00:17:17.161
00:20:06.872                             : en:00:20:06.872
00:24:12.076                             : en:00:24:12.076
00:28:43.513                             : en:00:28:43.513
00:30:41.673                             : en:00:30:41.673
00:31:39.189                             : en:00:31:39.189
00:33:57.035                             : en:00:33:57.035
00:36:26.768                             : en:00:36:26.768
00:39:25.697                             : en:00:39:25.697
00:42:16.701                             : en:00:42:16.701
00:43:40.034                             : en:00:43:40.034
00:48:34.912                             : en:00:48:34.912
00:51:38.178                             : en:00:51:38.178
00:57:58.350                             : en:00:57:58.350
00:59:40.660                             : en:00:59:40.660
01:03:40.442                             : en:01:03:40.442
01:06:12.635                             : en:01:06:12.635
01:07:22.705                             : en:01:07:22.705
01:11:23.905                             : en:01:11:23.905
01:16:29.251                             : en:01:16:29.251
01:19:17.544                             : en:01:19:17.544
01:25:00.929                             : en:01:25:00.929
01:28:03.153                             : en:01:28:03.153
01:30:10.947                             : en:01:30:10.947
01:33:14.506                             : en:01:33:14.506
01:38:47.088                             : en:01:38:47.088

c7e8f85ed6e5c275b22a54d24c5eb30b.jpg





                                                                                                                                                                                                        
                                                                                                                                                                                                                                                                                                                                                                                                                                                                                                                                                                                                                                                                                                                                                                                                                                                        
807bbfb8ff3e42040aa7dbdd53342a6b.torrent (15.49 KB, 下载次数: 0)

回复

使用道具 举报

小黑屋|百度云资源论坛 ( 闽ICP备16005822号-1 )

本网站所有资源来自网络,如无意中侵犯了您的权益,请发邮件至 [email protected],立即清除相关链接

GMT+8, 2022-8-8 09:42 , Processed in 0.075215 second(s), 17 queries .

Powered by Discuz! X3.4

© 2001-2017 Comsenz Inc.

快速回复 返回顶部 返回列表