百度云资源论坛

 找回密码
 立即注册
搜索
热搜: 百度云资源
开启左侧

血之猎手 Rise.Blood.Hunter.2007.iNTERNAL.720p.BluRay.x264-PEGASUS 5.38GB

[复制链接]
百度云电影 发表于 2021-12-16 00:44:13 | 显示全部楼层 |阅读模式
血之猎手 Rise.Blood.Hunter.2007.iNTERNAL.720p.BluRay.x264-PEGASUS 5.38GB                                                                                                                                                                                                                                                                                                                                                                                                                                                                                                                                        -->
帖子完整标题:血之猎手 Rise.Blood.Hunter.2007.iNTERNAL.720p.BluRay.x264-PEGASUS 5.38GB



df3520bd80a872a14cf38d137f42c9a8.jpg



◎译  名 血之猎手/Rise: Blood Hunter/猎杀鬼世界
◎片  名 Rise
◎年  代 2007
◎产  地 美国,新西兰
◎类  别 动作 / 悬疑 / 惊悚 / 恐怖
◎语  言 英语
◎上映日期 2007-06-01
◎豆瓣评分 4.8/10 from 1075 users
◎豆瓣链接 
◎片  长 USA: 94 分钟
◎导  演 塞巴斯蒂安·古提耶雷兹 Sebastian Gutierrez
◎编  剧 塞巴斯蒂安·古提耶雷兹 Sebastian Gutierrez
◎主  演 刘玉玲 Lucy Liu
       罗伯特·福斯特 Robert Forster
       卡梅隆·理查德森 Cameron Richardson
       卡拉·古奇诺 Carla Gugino
       艾伦·瑞奇 Allan Rich
       萨米拉·阿姆斯特朗 Samaire Armstrong
       岩松信 Makoto Iwamatsu
       阿纳斯塔西娅·巴拉诺娃 Anastasia Baranova
        India King
       玛尔戈·哈什曼 Margo Harshman
       玛丽莲·曼森 Marilyn Manson
       扎克·吉尔福德 Zach Gilford
       西蒙·雷克斯 Simon Rex
       尼克·拉奇 Nick Lachey
       霍特·麦克卡兰尼 Holt McCallany
       埃尔登·汉森 Elden Henson
       詹姆斯·达西 James D'Arcy
       迈克尔·切克利斯 Michael Chiklis
       保罗·卡塞尔 Paul Cassell
       萨曼莎·谢尔顿 Samantha Shelton
       Isabella Gutierrez Isabella Gutierrez
       弗兰·克朗茨 Fran Kranz
       胡里奥·奥斯卡·门乔索 Julio Oscar Mechoso

◎标  签 吸血鬼 | 美国 | 恐怖 | 美国电影 | 2007 | LucyLiu | 动作 | 血腥

◎简  介

  亚裔女记者萨蒂?布雷克(刘玉玲 饰)是一名极为敬业的报社记者,偶然机会一则关于邪教组织的消息吸引了她的注意力。与此同时,洛杉矶接连发生数起少女绑架案,最终女孩都被弃尸街头。敏感的萨蒂直觉认为绑架案与该邪教组织有关,她以发生在韩国城的绑架案为切入点,开始探查背后真相,却不慎被邪教成员抓住,失去了性命。
  
  从停尸间再次醒来的萨蒂惊异于自己的死而复生,但不久她便发现,她已变成了嗜血如命的吸血鬼。在本性和人性间痛苦挣扎萨蒂决定摧毁邪教组织,为所有的受害者报仇……
Video
ID                                       : 1
Format                                   : AVC
Format/Info                              : Advanced Video Codec
Format profile                           :
Format settings                          : CABAC / 9 Ref Frames
Format settings, CABAC                   : Yes
Format settings, Reference frames        : 9 frames
Codec ID                                 : V_MPEG4/ISO/AVC
Duration                                 : 2 h 1 min
Bit rate                                 : 5 678 kb/s
Width                                    : 1 278 pixels
Height                                   : 720 pixels
Display aspect ratio                     : 16:9
Frame rate mode                          : Constant
Frame rate                               : 23.976 (24000/1001/189150) FPS
Color space                              : YUV
Chroma subsampling                       : 4:2:0
Bit depth                                : 8 bits
Scan type                                : Progressive
Bits/(Pixel*Frame)                       : 0.257
Stream size                              : 4.84 GiB (90%)
Writing library                          : x264 core 163 r3059 b684ebe0
Encoding settings                        : cabac=1 / ref=9 / deblock=1:-3:-3 / analyse=0x3:0x133 / me=umh / subme=10 / psy=1 / psy_rd=1.00:0.00 / mixed_ref=1 / me_range=32 / chroma_me=1 / trellis=2 / 8x8dct=1 / cqm=0 / deadzone=21,11 / fast_pskip=0 / chroma_qp_offset=-2 / threads=22 / lookahead_threads=5 / sliced_threads=0 / nr=0 / decimate=0 / interlaced=0 / bluray_compat=0 / constrained_intra=0 / bframes=16 / b_pyramid=2 / b_adapt=2 / b_bias=0 / direct=3 / weightb=1 / open_gop=0 / weightp=2 / keyint=240 / keyint_min=24 / scenecut=40 / intra_refresh=0 / rc_lookahead=60 / rc=crf / mbtree=0 / crf=18.5 / qcomp=0.60 / qpmin=0 / qpmax=69 / qpstep=4 / vbv_maxrate=62500 / vbv_bufsize=78125 / crf_max=0.0 / nal_hrd=none / filler=0 / ip_ratio=1.40 / pb_ratio=1.30 / aq=2:1.00
Default                                  : Yes
Forced                                   : No
Color range                              : Limited
Color primaries                          : BT.709
Transfer characteristics                 : BT.709
Matrix coefficients                      : BT.709

Audio
ID                                       : 2
Format                                   : AC-3
Format/Info                              : Audio Coding 3
Commercial name                          : Dolby Digital
Codec ID                                 : A_AC3
Duration                                 : 2 h 1 min
Bit rate mode                            : Constant
Bit rate                                 : 640 kb/s
Channel(s)                               : 6 channels
Channel layout                           : L R C LFE Ls Rs
Sampling rate                            : 48.0 kHz
Frame rate                               : 31.250 FPS (1536 SPF)
Compression mode                         : Lossy
Stream size                              : 558 MiB (10%)
Language                                 : English
Service kind                             : Complete Main
Default                                  : Yes
Forced                                   : No

Text #1
ID                                       : 3
Format                                   : UTF-8
Codec ID                                 : S_TEXT/UTF8
Codec ID/Info                            : UTF-8 Plain Text
Duration                                 : 1 h 55 min
Bit rate                                 : 35 b/s
Count of elements                        : 906
Stream size                              : 30.3 KiB (0%)
Title                                    : SDH
Language                                 : English
Default                                  : No
Forced                                   : No

Text #2
ID                                       : 4
Format                                   : PGS
Muxing mode                              : zlib
Codec ID                                 : S_HDMV/PGS
Codec ID/Info                            : Picture based subtitle format used on BDs/HD-DVDs
Duration                                 : 2 h 1 min
Bit rate                                 : 11.4 kb/s
Count of elements                        : 1832
Stream size                              : 9.91 MiB (0%)
Language                                 : French
Default                                  : No
Forced                                   : No

Text #3
ID                                       : 5
Format                                   : PGS
Muxing mode                              : zlib
Codec ID                                 : S_HDMV/PGS
Codec ID/Info                            : Picture based subtitle format used on BDs/HD-DVDs
Duration                                 : 2 h 1 min
Bit rate                                 : 64 b/s
Count of elements                        : 8
Stream size                              : 58.0 KiB (0%)
Language                                 : French
Default                                  : No
Forced                                   : No

Menu
00:00:00.000                             : :Chapter 1
00:07:21.775                             : :Chapter 2
00:15:47.155                             : :Chapter 3
00:29:46.368                             : :Chapter 4
00:40:28.217                             : :Chapter 5
00:52:46.872                             : :Chapter 6
00:56:00.858                             : :Chapter 7
01:05:25.880                             : :Chapter 8
01:11:06.679                             : :Chapter 9
01:18:44.762                             : :Chapter 10
01:34:11.980                             : :Chapter 11
01:42:18.758                             : :Chapter 12

3e369482c1e33544315b1acba95f7276.jpg





                                                                                                                                                                                                        
                                                                                                                                                                                                                                                                                                                                                                                                                                                                                                                                                                                                                                                                                                                                                                                                                                                        
63725103c383cc39632d7d938de27749.torrent (14.22 KB, 下载次数: 0)

回复

使用道具 举报

小黑屋|百度云资源论坛 ( 闽ICP备16005822号-1 )

本网站所有资源来自网络,如无意中侵犯了您的权益,请发邮件至 [email protected],立即清除相关链接

GMT+8, 2022-8-8 09:54 , Processed in 0.081821 second(s), 17 queries .

Powered by Discuz! X3.4

© 2001-2017 Comsenz Inc.

快速回复 返回顶部 返回列表