百度云资源论坛

 找回密码
 立即注册
搜索
热搜: 百度云资源
开启左侧

派对女郎 Party.Girl.1958.1080p.BluRay.x264.FLAC2.0-HANDJOB 6.62GB

[复制链接]
百度云电影 发表于 2021-12-16 18:44:30 | 显示全部楼层 |阅读模式
派对女郎 Party.Girl.1958.1080p.BluRay.x264.FLAC2.0-HANDJOB 6.62GB                                                                                                                                                                                                                                                                                                                                                                                                                                                                                                                                        -->
帖子完整标题:派对女郎 Party.Girl.1958.1080p.BluRay.x264.FLAC2.0-HANDJOB 6.62GB



edfc8e64ba01e4b062136c77ca97c9d2.jpg



◎译  名 派对女郎
◎片  名 Party Girl
◎年  代 1958
◎产  地 美国
◎类  别 剧情 / 黑色电影
◎语  言 英语
◎上映日期 1958-10-28
◎豆瓣评分 7.3/10 from 135 users
◎豆瓣链接 
◎片  长 99 分钟
◎导  演 尼古拉斯·雷 Nicholas Ray
◎编  剧 乔治·韦尔斯 George Wells
◎主  演 罗伯特·泰勒 Robert Taylor
       赛德·查里斯 Cyd Charisse
       李·科布 Lee J. Cobb
       帕特里克·麦克维 Patrick McVey

◎标  签 美国 | Nicholas_Ray | 美国电影 | 1950s | 黑色电影 | 尼古拉斯·雷 | NicholasRay | 罗伯特·泰勒

◎简  介

  Lawyer Thomas Farrell has made a career defending crooks in trials. He has never realised that there is a downside to his success, until he meets the dancer Vicki Gayle. She makes him decide to get a better reputation. But mob king Rico Angelo insists that he continues his services.
  
  
  
  A film that might be regarded as Nicholas Ray's farewell to Hollywood (if not commercial filmmaking), as well as his tribute to Chicago in 20s, this 1958 feature is also one of his most affecting love stories. An unlikely alliance between a crippled and crooked lawyer (Robert Taylor) and a dancing showgirl (Cyd Charisse), both of whom try to escape the power of a tyrannical mobster (Lee J. Cobb), forms the basis for a flamboyant poem in delirious color and scope that is treated with a mixture of violence and lyricism that is unique to Ray.
  
  
  
  在《阿飛正傳》愛過、痛過、反叛過之後,尼古拉斯.雷執導了。這部被喻為他最具感染力的愛情電影。二十年代的芝加哥,瘸腿律師(羅伯特.泰勒)遇上美艷舞孃(賽德.查里斯)……兩個本來不可能遇上的人,卻因為要逃避一個黑幫惡漢(李科布)而情牽一線。尼古拉斯.雷在這部一九五八年黑色電影中,繼續發揮他的看家本領,把浮誇色彩、浪漫意境及詩意暴力共冶一爐,叫人看得嘖嘖稱奇。影片更影響了日後的美國黑幫電影,哥普拉的《教父》和狄龐馬的《義膽雄心》都難免有《派對女郎》的影子。
Video
ID                                       : 1
Format                                   : AVC
Format/Info                              : Advanced Video Codec
Format profile                           :
Format settings                          : CABAC / 5 Ref Frames
Format settings, CABAC                   : Yes
Format settings, Reference frames        : 5 frames
Codec ID                                 : V_MPEG4/ISO/AVC
Duration                                 : 1 h 38 min
Bit rate                                 : 9 251 kb/s
Width                                    : 1 920 pixels
Height                                   : 816 pixels
Display aspect ratio                     : 2.35:1
Frame rate mode                          : Constant
Frame rate                               : 23.976 (24000/1001/189150) FPS
Color space                              : YUV
Chroma subsampling                       : 4:2:0
Bit depth                                : 8 bits
Scan type                                : Progressive
Bits/(Pixel*Frame)                       : 0.246
Stream size                              : 6.39 GiB (97%)
Writing library                          : x264 core 163 r3059 b684ebe0
Encoding settings                        : cabac=1 / ref=5 / deblock=1:-3:-3 / analyse=0x3:0x133 / me=umh / subme=11 / psy=1 / psy_rd=1.00:0.00 / mixed_ref=1 / me_range=48 / chroma_me=1 / trellis=2 / 8x8dct=1 / cqm=0 / deadzone=21,11 / fast_pskip=0 / chroma_qp_offset=-2 / threads=21 / lookahead_threads=5 / sliced_threads=0 / nr=0 / decimate=0 / interlaced=0 / bluray_compat=0 / constrained_intra=0 / bframes=16 / b_pyramid=2 / b_adapt=2 / b_bias=0 / direct=3 / weightb=1 / open_gop=0 / weightp=2 / keyint=240 / keyint_min=24 / scenecut=40 / intra_refresh=0 / rc_lookahead=60 / rc=crf / mbtree=0 / crf=19.0 / qcomp=0.60 / qpmin=0 / qpmax=69 / qpstep=4 / vbv_maxrate=62500 / vbv_bufsize=78125 / crf_max=0.0 / nal_hrd=none / filler=0 / ip_ratio=1.40 / pb_ratio=1.30 / aq=2:1.00
Default                                  : Yes
Forced                                   : No
Color range                              : Limited
Color primaries                          : BT.709
Transfer characteristics                 : BT.709
Matrix coefficients                      : BT.709

Audio
ID                                       : 2
Format                                   : FLAC
Format/Info                              : Free Lossless Audio Codec
Codec ID                                 : A_FLAC
Duration                                 : 1 h 38 min
Bit rate mode                            : Variable
Bit rate                                 : 324 kb/s
Channel(s)                               : 2 channels
Channel layout                           : L R
Sampling rate                            : 48.0 kHz
Frame rate                               : 11.719 FPS (4096 SPF)
Bit depth                                : 16 bits
Compression mode                         : Lossless
Stream size                              : 229 MiB (3%)
Writing library                          : libFLAC 1.2.1 (UTC 2007-09-17)
Language                                 : English
Default                                  : Yes
Forced                                   : No

Text
ID                                       : 3
Format                                   : UTF-8
Codec ID                                 : S_TEXT/UTF8
Codec ID/Info                            : UTF-8 Plain Text
Duration                                 : 1 h 38 min
Bit rate                                 : 65 b/s
Count of elements                        : 1538
Stream size                              : 47.5 KiB (0%)
Language                                 : English
Default                                  : No
Forced                                   : No

Menu
00:00:00.000                             : :Chapter 1
00:01:59.161                             : :Chapter 2
00:03:15.237                             : :Chapter 3
00:05:25.367                             : :Chapter 4
00:08:24.295                             : :Chapter 5
00:10:31.256                             : :Chapter 6
00:15:26.384                             : :Chapter 7
00:18:47.335                             : :Chapter 8
00:22:56.375                             : :Chapter 9
00:26:43.519                             : :Chapter 10
00:29:42.698                             : :Chapter 11
00:31:59.501                             : :Chapter 12
00:34:26.314                             : :Chapter 13
00:36:16.091                             : :Chapter 14
00:39:05.260                             : :Chapter 15
00:42:59.494                             : :Chapter 16
00:45:11.209                             : :Chapter 17
00:47:23.049                             : :Chapter 18
00:49:45.149                             : :Chapter 19
00:54:04.408                             : :Chapter 20
01:00:51.815                             : :Chapter 21
01:03:53.204                             : :Chapter 22
01:04:47.425                             : :Chapter 23
01:06:57.805                             : :Chapter 24
01:09:09.312                             : :Chapter 25
01:10:13.167                             : :Chapter 26
01:12:38.980                             : :Chapter 27
01:15:28.482                             : :Chapter 28
01:18:24.909                             : :Chapter 29
01:21:17.790                             : :Chapter 30
01:25:29.583                             : :Chapter 31
01:26:19.758                             : :Chapter 32
01:28:56.998                             : :Chapter 33
01:30:11.323                             : :Chapter 34
01:32:56.446                             : :Chapter 35
01:36:54.726                             : :Chapter 36
01:38:19.519                             : :Chapter 37

91bee79e5b8e8f9371aab554f079b031.png

[/url]e542029a63044adb2a75e00b4c94716d.png

[/url]a5fd36aeaeb4ce99112ff66050bd9b74.png

[/url]



                                                                                                                                                                                                        
                                                                                                                                                                                                                                                                                                                                                                                                                                                                                                                                                                                                                                                                                                                                                                                                                                                        
004a1a7ba69d5cf1ce50e2dcb723ecfe.torrent (17.15 KB, 下载次数: 0)

回复

使用道具 举报

小黑屋|百度云资源论坛 ( 闽ICP备16005822号-1 )

本网站所有资源来自网络,如无意中侵犯了您的权益,请发邮件至 [email protected],立即清除相关链接

GMT+8, 2022-5-19 19:16 , Processed in 0.085192 second(s), 17 queries .

Powered by Discuz! X3.4

© 2001-2017 Comsenz Inc.

快速回复 返回顶部 返回列表