百度云资源论坛

 找回密码
 立即注册
搜索
热搜: 百度云资源
开启左侧

危险境地 Dangerous.2021.720p.BluRay.x264-PiGNUS 3.11GB

[复制链接]
百度云电影 发表于 2021-12-16 18:44:50 | 显示全部楼层 |阅读模式
危险境地 Dangerous.2021.720p.BluRay.x264-PiGNUS 3.11GB                                                                                                                                                                                                                                                                                                                                                                                                                                                                                                                                        -->
帖子完整标题:危险境地 Dangerous.2021.720p.BluRay.x264-PiGNUS 3.11GB



0d750572b063d78bc78b3b0f1f45f318.jpg



◎译  名 危险境地/Wake
◎片  名 Dangerous
◎年  代 2021
◎产  地 美国
◎类  别 动作 / 惊悚
◎语  言 英语
◎上映日期 2021-11-05(美国)
◎豆瓣评分 4.8/10 from 205 users
◎豆瓣链接 
◎片  长 99分钟
◎导  演 大卫·海克尔 David Hackl
◎编  剧 马修·萨德 Matthew Sand / 克里斯托弗·博雷利 Christopher Borrelli
◎主  演 本·金斯利 Ben Kingsley
       卡梅隆·莫纳汉 Cameron Monaghan
       派珀·佩拉博 Piper Perabo
       艾伦·伯斯汀 Ellen Burstyn
       范立美 Jessika Van
       布兰登·布拉德里 Brendan Bradley
       邢思杰 Alfred Hsing
       瓦内萨·莫达 Vanessa Motta
       斯科特·伊斯特伍德 Scott Eastwood
       梅尔·吉布森 Mel Gibson
       泰瑞斯·吉布森 Tyrese Gibson
       法米克·詹森 Famke Janssen
       凯文·杜兰 Kevin Durand

◎标  签 美国 | 动作 | 犯罪 | 2021 | 电影 | 剧情 | 斯科特·伊斯特伍德 | 惊悚

◎简  介

  伊斯特伍德饰演一个改过自新的反社会分子,他在兄弟死后前往一个偏远地区,不料被一群致命的雇佣兵围困。在谋生的过程中,他发现这群人和兄弟的死有关,开始了无情残酷的复仇。
Video
ID                                       : 1
Format                                   : AVC
Format/Info                              : Advanced Video Codec
Format profile                           :
Format settings                          : CABAC / 8 Ref Frames
Format settings, CABAC                   : Yes
Format settings, Reference frames        : 8 frames
Codec ID                                 : V_MPEG4/ISO/AVC
Duration                                 : 1 h 39 min
Bit rate                                 : 3 714 kb/s
Width                                    : 1 280 pixels
Height                                   : 534 pixels
Display aspect ratio                     : 2.40:1
Frame rate mode                          : Constant
Frame rate                               : 23.976 (24000/1001/189150) FPS
Color space                              : YUV
Chroma subsampling                       : 4:2:0
Bit depth                                : 8 bits
Scan type                                : Progressive
Bits/(Pixel*Frame)                       : 0.227
Stream size                              : 2.57 GiB (83%)
Writing library                          : x264 core 164 r3079 d9a19f0
Encoding settings                        : cabac=1 / ref=8 / deblock=1:-3:-3 / analyse=0x3:0x133 / me=umh / subme=9 / psy=1 / psy_rd=1.00:0.00 / mixed_ref=1 / me_range=16 / chroma_me=1 / trellis=2 / 8x8dct=1 / cqm=0 / deadzone=21,11 / fast_pskip=1 / chroma_qp_offset=-2 / threads=17 / lookahead_threads=1 / sliced_threads=0 / nr=0 / decimate=1 / interlaced=0 / bluray_compat=0 / constrained_intra=0 / bframes=3 / b_pyramid=2 / b_adapt=2 / b_bias=0 / direct=3 / weightb=1 / open_gop=0 / weightp=2 / keyint=250 / keyint_min=23 / scenecut=40 / intra_refresh=0 / rc_lookahead=60 / rc=crf / mbtree=1 / crf=14.5 / qcomp=0.60 / qpmin=0 / qpmax=69 / qpstep=4 / ip_ratio=1.40 / aq=1:1.00
Default                                  : Yes
Forced                                   : No

Audio #1
ID                                       : 2
Format                                   : AC-3
Format/Info                              : Audio Coding 3
Commercial name                          : Dolby Digital
Codec ID                                 : A_AC3
Duration                                 : 1 h 39 min
Bit rate mode                            : Constant
Bit rate                                 : 640 kb/s
Channel(s)                               : 6 channels
Channel layout                           : L R C LFE Ls Rs
Sampling rate                            : 48.0 kHz
Frame rate                               : 31.250 FPS (1536 SPF)
Compression mode                         : Lossy
Stream size                              : 453 MiB (14%)
Language                                 : English
Service kind                             : Complete Main
Default                                  : Yes
Forced                                   : No

Audio #2
ID                                       : 3
Format                                   : AAC LC
Format/Info                              : Advanced Audio Codec Low Complexity
Codec ID                                 : A_AAC-2
Duration                                 : 1 h 39 min
Bit rate                                 : 113 kb/s
Channel(s)                               : 2 channels
Channel layout                           : L R
Sampling rate                            : 48.0 kHz
Frame rate                               : 46.875 FPS (1024 SPF)
Compression mode                         : Lossy
Delay relative to video                  : 9 ms
Stream size                              : 80.4 MiB (3%)
Title                                    : Commentary
Language                                 : English
Default                                  : Yes
Forced                                   : No

Text #1
ID                                       : 4
Format                                   : PGS
Muxing mode                              : zlib
Codec ID                                 : S_HDMV/PGS
Codec ID/Info                            : Picture based subtitle format used on BDs/HD-DVDs
Duration                                 : 1 h 35 min
Bit rate                                 : 34.8 kb/s
Count of elements                        : 2378
Stream size                              : 23.7 MiB (1%)
Title                                    : English SDH
Language                                 : English
Default                                  : No
Forced                                   : No

Text #2
ID                                       : 5
Format                                   : PGS
Muxing mode                              : zlib
Codec ID                                 : S_HDMV/PGS
Codec ID/Info                            : Picture based subtitle format used on BDs/HD-DVDs
Duration                                 : 1 h 32 min
Bit rate                                 : 29.9 kb/s
Count of elements                        : 2134
Stream size                              : 19.7 MiB (1%)
Title                                    : Spanish
Language                                 : Spanish
Default                                  : No
Forced                                   : No

Menu
00:00:00.000                             : en:Chapter 01
00:05:16.942                             : en:Chapter 02
00:09:18.725                             : en:Chapter 03
00:16:57.433                             : en:Chapter 04
00:21:28.204                             : en:Chapter 05
00:26:39.181                             : en:Chapter 06
00:33:39.726                             : en:Chapter 07
00:40:35.600                             : en:Chapter 08
00:44:59.614                             : en:Chapter 09
00:50:47.336                             : en:Chapter 10
00:58:51.027                             : en:Chapter 11
01:05:08.446                             : en:Chapter 12
01:11:23.529                             : en:Chapter 13
01:19:51.996                             : en:Chapter 14
01:26:23.053                             : en:Chapter 15
01:32:27.375                             : en:Chapter 16
01:39:01.727                             : en:Chapter 17

6ebd8ff5591a28107adec8ef05af33ec.jpg





                                                                                                                                                                                                        
                                                                                                                                                                                                                                                                                                                                                                                                                                                                                                                                                                                                                                                                                                                                                                                                                                                        
f31b69dac45377609011829d2c8cd540.torrent (16.29 KB, 下载次数: 0)

回复

使用道具 举报

小黑屋|百度云资源论坛 ( 闽ICP备16005822号-1 )

本网站所有资源来自网络,如无意中侵犯了您的权益,请发邮件至 [email protected],立即清除相关链接

GMT+8, 2022-8-8 10:32 , Processed in 0.076460 second(s), 17 queries .

Powered by Discuz! X3.4

© 2001-2017 Comsenz Inc.

快速回复 返回顶部 返回列表