百度云资源论坛

 找回密码
 立即注册
搜索
热搜: 百度云资源
开启左侧

赤裸裸的暴力 Naked.Violence.1969.DUBBED.1080p.BluRay.x264-GUACAMOLE 5.51GB

[复制链接]
百度云资源 发表于 2021-12-19 10:47:23 | 显示全部楼层 |阅读模式
赤裸裸的暴力 Naked.Violence.1969.DUBBED.1080p.BluRay.x264-GUACAMOLE 5.51GB                                                                                                                                                                                                                                                                                                                                                                                                                                                                                                                                        -->
帖子完整标题:赤裸裸的暴力 Naked.Violence.1969.DUBBED.1080p.BluRay.x264-GUACAMOLE 5.51GB



9614932e30628cd4d268319ff0536c23.jpg



◎译  名 赤裸裸的暴力/Naked Violence
◎片  名 I ragazzi del massacro
◎年  代 1969
◎产  地 意大利
◎类  别 剧情 / 惊悚 / 犯罪
◎语  言 意大利语
◎上映日期 1968
◎豆瓣评分 /10 from 0 users
◎豆瓣链接 
◎片  长 94分钟
◎导  演 费尔南多·迪·莱沃 Fernando Di Leo
◎编  剧 费尔南多·迪·莱沃 Fernando Di Leo / Giorgio Scerbanenco Giorgio Scerbanenco
◎主  演 阿妲·波梅蒂 Ada Pometti
       Danika La Loggia Danika La Loggia
       弗朗索瓦丝·佩武 Fran?oise Prévost
       列薇思·纳瓦罗 Nieves Navarro
       Enzo Liberti Enzo Liberti
       皮耶尔·保罗·卡波尼 Pier Paolo Capponi
       Michel Bardinet Michel Bardinet
       盖比瑞拉·D·奥利芙 Gabriella D'Olive

◎标  签 意大利 | 犯罪 | 恐怖 | 1960s | 意大利电影 | 惊悚 | 悬疑 | 已下

◎简  介

  1. Some youngsters kill their teacher; but they won't tell their motivation. The police detective on the case feels some sinister influence behind the young murderers.
  
  2. About the search for an adult who pushed a classroom full of troubled teens to gang-rape and murder their female teacher. A hard-bitten Police Inspector named Liberti is put on the case and sets about brutally interrogating the young punks. He finally settles on a blond boy named Fiorello as the one most likely to squeal, but when he jumps from a rooftop, Liberti knows there is more to the teacher's murder than meets the eye.
Video
ID                                       : 1
Format                                   : AVC
Format/Info                              : Advanced Video Codec
Format profile                           :
Format settings                          : CABAC / 4 Ref Frames
Format settings, CABAC                   : Yes
Format settings, Reference frames        : 4 frames
Codec ID                                 : V_MPEG4/ISO/AVC
Duration                                 : 1 h 38 min
Bit rate                                 : 7 388 kb/s
Width                                    : 1 896 pixels
Height                                   : 1 006 pixels
Display aspect ratio                     : 1.885
Frame rate mode                          : Constant
Frame rate                               : 23.976 (24000/1001/189150) FPS
Color space                              : YUV
Chroma subsampling                       : 4:2:0
Bit depth                                : 8 bits
Scan type                                : Progressive
Bits/(Pixel*Frame)                       : 0.162
Stream size                              : 5.11 GiB (93%)
Writing library                          : x264 core 164 r3075 66a5bc1
Encoding settings                        : cabac=1 / ref=4 / deblock=1:-3:-3 / analyse=0x3:0x133 / me=umh / subme=9 / psy=1 / psy_rd=1.00:0.00 / mixed_ref=1 / me_range=16 / chroma_me=1 / trellis=2 / 8x8dct=1 / cqm=0 / deadzone=21,11 / fast_pskip=0 / chroma_qp_offset=-2 / threads=24 / lookahead_threads=2 / sliced_threads=0 / nr=0 / decimate=1 / interlaced=0 / bluray_compat=0 / constrained_intra=0 / bframes=3 / b_pyramid=2 / b_adapt=2 / b_bias=0 / direct=3 / weightb=1 / open_gop=0 / weightp=2 / keyint=250 / keyint_min=23 / scenecut=40 / intra_refresh=0 / rc_lookahead=60 / rc=crf / mbtree=1 / crf=17.0 / qcomp=0.60 / qpmin=0 / qpmax=69 / qpstep=4 / ip_ratio=1.40 / aq=3:0.60
Default                                  : Yes
Forced                                   : No
Color range                              : Limited
Matrix coefficients                      : BT.709

Audio
ID                                       : 2
Format                                   : FLAC
Format/Info                              : Free Lossless Audio Codec
Codec ID                                 : A_FLAC
Duration                                 : 1 h 38 min
Bit rate mode                            : Variable
Bit rate                                 : 575 kb/s
Channel(s)                               : 2 channels
Channel layout                           : L R
Sampling rate                            : 48.0 kHz
Frame rate                               : 11.719 FPS (4096 SPF)
Bit depth                                : 16 bits
Compression mode                         : Lossless
Stream size                              : 407 MiB (7%)
Writing library                          : libFLAC 1.2.1 (UTC 2007-09-17)
Language                                 : English
Default                                  : Yes
Forced                                   : No

Text
ID                                       : 3
Format                                   : PGS
Muxing mode                              : zlib
Codec ID                                 : S_HDMV/PGS
Codec ID/Info                            : Picture based subtitle format used on BDs/HD-DVDs
Duration                                 : 1 h 34 min
Bit rate                                 : 30.5 kb/s
Count of elements                        : 1717
Stream size                              : 20.6 MiB (0%)
Language                                 : German
Default                                  : No
Forced                                   : No

Menu
00:00:00.000                             : en:00:00:00.000
00:08:14.369                             : en:00:08:14.369
00:14:31.871                             : en:00:14:31.871
00:23:24.069                             : en:00:23:24.069
00:29:31.812                             : en:00:29:31.812
00:35:51.441                             : en:00:35:51.441
00:45:03.075                             : en:00:45:03.075
00:57:48.882                             : en:00:57:48.882
01:05:55.743                             : en:01:05:55.743
01:17:48.581                             : en:01:17:48.581
01:27:20.444                             : en:01:27:20.444
01:34:24.450                             : en:01:34:24.450

60d45014c194a89feb45bfa2b883a4df.jpg





                                                                                                                                                                                                        
                                                                                                                                                                                                                                                                                                                                                                                                                                                                                                                                                                                                                                                                                                                                                                                                                                                        
6517c0c44490aae9f8a17301ab4161d2.torrent (14.47 KB, 下载次数: 0)

回复

使用道具 举报

小黑屋|百度云资源论坛 ( 闽ICP备16005822号-1 )

本网站所有资源来自网络,如无意中侵犯了您的权益,请发邮件至 [email protected],立即清除相关链接

GMT+8, 2022-5-19 20:09 , Processed in 0.074511 second(s), 17 queries .

Powered by Discuz! X3.4

© 2001-2017 Comsenz Inc.

快速回复 返回顶部 返回列表