百度云资源论坛

 找回密码
 立即注册
搜索
热搜: 百度云资源
开启左侧

光之屋 The.Lighthouse.2006.720p.BluRay.x264-BiPOLAR 6.07GB

[复制链接]
百度云电影 发表于 2021-12-19 10:47:31 | 显示全部楼层 |阅读模式
光之屋 The.Lighthouse.2006.720p.BluRay.x264-BiPOLAR 6.07GB                                                                                                                                                                                                                                                                                                                                                                                                                                                                                                                                        -->
帖子完整标题:光之屋 The.Lighthouse.2006.720p.BluRay.x264-BiPOLAR 6.07GB



e2ee9368e6a6d64a359f6e9075d3b284.jpg



◎译  名 光之屋/Mayak/The Lighthouse/灯塔
◎片  名 Маяк
◎年  代 2006
◎产  地 俄罗斯,亚美尼亚
◎类  别 剧情
◎语  言 俄语
◎上映日期 2007-05-01
◎豆瓣评分 7.6/10 from 238 users
◎豆瓣链接 
◎片  长 80分钟
◎导  演 玛丽亚·塞克亚 Mariya Saakyan
◎编  剧 Givi Shavgulidze Givi Shavgulidze
◎主  演 Anna Kapaleva
       索斯·萨尔格相 Sos Sargsyan
       索菲柯·齐阿乌列里 Sofiko Chiaureli

◎标  签 俄罗斯 | 亚美尼亚 | 战争 | 俄罗斯电影 | 苏俄 | 高加索 | 2000s | 2006

◎简  介

  列车随记忆缓缓前驶,她回到当年因为战乱而逃离的故乡,想要接走留在老家的祖母,但这次,就自己也找不到离开的火车了。当流亡、战火、饥饿、死亡逼使所有人退至生存的绝境,当故乡的一切都只剩下透光的残破屋瓦,究竟还有什么可以寄托乡愁与思念?
  
  导演以充满情感的凝敛影像,将发生于九零年代高加索地区的战乱悲剧,转化为个人对国族的感性思索,一幕幕诗意的画面层层堆叠,我们仿佛也随着剧中人的流浪,在历史与时代的迷雾中徘徊,走进塔可夫斯基的风景中。
Video
ID                                       : 1
Format                                   : AVC
Format/Info                              : Advanced Video Codec
Format profile                           :
Format settings                          : CABAC / 9 Ref Frames
Format settings, CABAC                   : Yes
Format settings, Reference frames        : 9 frames
Codec ID                                 : V_MPEG4/ISO/AVC
Duration                                 : 1 h 18 min
Bit rate                                 : 9 595 kb/s
Width                                    : 1 280 pixels
Height                                   : 692 pixels
Display aspect ratio                     : 1.85:1
Frame rate mode                          : Constant
Frame rate                               : 24.000 FPS
Color space                              : YUV
Chroma subsampling                       : 4:2:0
Bit depth                                : 8 bits
Scan type                                : Progressive
Bits/(Pixel*Frame)                       : 0.451
Stream size                              : 5.25 GiB (88%)
Writing library                          : x264 core 164 r3079 d9a19f0
Encoding settings                        : cabac=1 / ref=9 / deblock=1:-3:-3 / analyse=0x3:0x133 / me=umh / subme=10 / psy=1 / psy_rd=1.00:0.15 / mixed_ref=1 / me_range=24 / chroma_me=1 / trellis=2 / 8x8dct=1 / cqm=0 / deadzone=21,11 / fast_pskip=1 / chroma_qp_offset=-3 / threads=18 / lookahead_threads=3 / sliced_threads=0 / nr=0 / decimate=1 / interlaced=0 / bluray_compat=0 / constrained_intra=0 / bframes=8 / b_pyramid=2 / b_adapt=2 / b_bias=0 / direct=3 / weightb=1 / open_gop=0 / weightp=2 / keyint=250 / keyint_min=24 / scenecut=40 / intra_refresh=0 / rc_lookahead=60 / rc=crf / mbtree=1 / crf=18.0 / qcomp=0.60 / qpmin=0 / qpmax=69 / qpstep=4 / ip_ratio=1.40 / aq=3:0.50
Language                                 : English
Default                                  : Yes
Forced                                   : No
Color range                              : Limited
Matrix coefficients                      : BT.709

Audio
ID                                       : 2
Format                                   : FLAC
Format/Info                              : Free Lossless Audio Codec
Codec ID                                 : A_FLAC
Duration                                 : 1 h 18 min
Bit rate mode                            : Variable
Bit rate                                 : 1 349 kb/s
Channel(s)                               : 2 channels
Channel layout                           : L R
Sampling rate                            : 48.0 kHz
Frame rate                               : 11.719 FPS (4096 SPF)
Bit depth                                : 24 bits
Compression mode                         : Lossless
Stream size                              : 756 MiB (12%)
Writing library                          : libFLAC 1.2.1 (UTC 2007-09-17)
Language                                 : Russian
Default                                  : Yes
Forced                                   : No

Text #1
ID                                       : 3
Format                                   : UTF-8
Codec ID                                 : S_TEXT/UTF8
Codec ID/Info                            : UTF-8 Plain Text
Duration                                 : 1 h 13 min
Bit rate                                 : 21 b/s
Count of elements                        : 415
Stream size                              : 11.8 KiB (0%)
Title                                    : English
Language                                 : English
Default                                  : Yes
Forced                                   : Yes

Text #2
ID                                       : 4
Format                                   : PGS
Muxing mode                              : zlib
Codec ID                                 : S_HDMV/PGS
Codec ID/Info                            : Picture based subtitle format used on BDs/HD-DVDs
Duration                                 : 1 h 13 min
Bit rate                                 : 5 422 b/s
Count of elements                        : 830
Stream size                              : 2.86 MiB (0%)
Title                                    : English
Language                                 : English
Default                                  : No
Forced                                   : No

Menu
00:00:00.000                             : en:00:00:00.000
00:08:01.417                             : en:00:08:01.417
00:14:31.583                             : en:00:14:31.583
00:24:16.208                             : en:00:24:16.208
00:33:23.042                             : en:00:33:23.042
00:36:40.458                             : en:00:36:40.458
00:44:44.750                             : en:00:44:44.750
00:49:49.667                             : en:00:49:49.667
00:54:48.500                             : en:00:54:48.500
00:59:31.458                             : en:00:59:31.458
01:06:55.833                             : en:01:06:55.833
01:12:40.000                             : en:01:12:40.000

ff8a959f0d8488a978ba6b7b6899e4a8.jpg





                                                                                                                                                                                                        
                                                                                                                                                                                                                                                                                                                                                                                                                                                                                                                                                                                                                                                                                                                                                                                                                                                        
624ed3b8e4bfff2cc42338f3a4d37518.torrent (16.08 KB, 下载次数: 0)

回复

使用道具 举报

小黑屋|百度云资源论坛 ( 闽ICP备16005822号-1 )

本网站所有资源来自网络,如无意中侵犯了您的权益,请发邮件至 [email protected],立即清除相关链接

GMT+8, 2022-8-10 03:24 , Processed in 0.071308 second(s), 17 queries .

Powered by Discuz! X3.4

© 2001-2017 Comsenz Inc.

快速回复 返回顶部 返回列表