百度云资源论坛

 找回密码
 立即注册
搜索
热搜: 百度云资源
开启左侧

已故的帕斯卡尔 The.Late.Mathias.Pascal.1926.1080p.BluRay.x264-BiPOLAR 15.19GB .. ...

[复制链接]
百度云电影 发表于 2021-12-20 10:49:19 | 显示全部楼层 |阅读模式
已故的帕斯卡尔 The.Late.Mathias.Pascal.1926.1080p.BluRay.x264-BiPOLAR 15.19GB                                                                                                                                                                                                                                                                                                                                                                                                                                                                                                                                        -->
帖子完整标题:已故的帕斯卡尔 The.Late.Mathias.Pascal.1926.1080p.BluRay.x264-BiPOLAR 15.19GB



4b75f11e6ff6987e4f4e8425c68b2b5a.jpg



◎译  名 已故的帕斯卡尔/The Late Mathias Pascal
◎片  名 Feu Mathias Pascal
◎年  代 1926
◎产  地 法国
◎类  别 剧情
◎语  言 法语
◎上映日期 1926-02-12
◎豆瓣评分 /10 from 0 users
◎豆瓣链接 
◎片  长 170 分钟
◎导  演 马塞尔·莱尔比埃 Marcel L'Herbier
◎编  剧 马塞尔·莱尔比埃 Marcel L'Herbier / 路易吉·皮兰德娄 Luigi Pirandello
◎主  演 伊万·莫兹尤辛 Ivan Mozzhukhin
       Marcelle Pradot Marcelle Pradot
       鲁伊·莫兰 Lois Moran
       玛尔特·梅洛 Marthe Mellot
       米歇尔·西蒙 Michel Simon
       Jean Hervé Jean Hervé
       Jeanne Saint-Bonnet Jeanne Saint-Bonnet
       菲利普·埃里亚 Philippe Hériat
       皮埃尔·巴彻夫 Pierre Batcheff
       波利娜·卡尔东 Pauline Carton
       雅克·卡特兰 Jaque Catelain

◎标  签 法国 | Marcel_L'Herbier | 默片 | 印象派 | 1920s | 1926 | 法国电影 | France

◎简  介

  Mathias Pascal, only son of a once rich family, marries beautiful Romalinda, who has a terrible mother-in-law. She controls her daughter, and soon his home life becomes a nightmare, as well as his job as assistant librarian in his home town. His only moments of lights are his mother and his baby, but both die on the same day. Shocked he leaves his hometown and gets to Monte Carlo, where he wins a fortune at the Casino. Returning home, he reads his own obituary in a paper. They have found a corpse in a creek and connected it with his disappearance. Mathias, noticing that he now is free from all ties to his old live, decides to start a new one, and goes to Rome, where he rents a room in a pension full of fake spiritualists who are controlling the owner. The chief of the gang, Terence, wants to marry the owner's daughter Adrienne, and has convinced her father to give her to him, with no regards of Adrienne's feelings, who is in love with and loved by Mathias. When Terence steals Mathias 50,000 Lira, and Mathias, being officially dead can neither marry Adrienne nor denounce Terence to the police, he decides to do something about his state and travels home, just to notice that Romalinda has remarried...
Video
ID                                       : 1
Format                                   : AVC
Format/Info                              : Advanced Video Codec
Format profile                           :
Format settings                          : CABAC / 5 Ref Frames
Format settings, CABAC                   : Yes
Format settings, Reference frames        : 5 frames
Codec ID                                 : V_MPEG4/ISO/AVC
Duration                                 : 2 h 58 min
Bit rate                                 : 12.0 Mb/s
Width                                    : 1 436 pixels
Height                                   : 1 080 pixels
Display aspect ratio                     : 4:3
Frame rate mode                          : Constant
Frame rate                               : 17.277 FPS
Color space                              : YUV
Chroma subsampling                       : 4:2:0
Bit depth                                : 8 bits
Scan type                                : Progressive
Bits/(Pixel*Frame)                       : 0.447
Stream size                              : 14.9 GiB (98%)
Writing library                          : x264 core 164 r3079 d9a19f0
Encoding settings                        : cabac=1 / ref=5 / deblock=1:-3:-3 / analyse=0x3:0x133 / me=umh / subme=10 / psy=1 / psy_rd=1.00:0.15 / mixed_ref=1 / me_range=24 / chroma_me=1 / trellis=2 / 8x8dct=1 / cqm=0 / deadzone=21,11 / fast_pskip=1 / chroma_qp_offset=-3 / threads=18 / lookahead_threads=3 / sliced_threads=0 / nr=0 / decimate=1 / interlaced=0 / bluray_compat=0 / constrained_intra=0 / bframes=8 / b_pyramid=2 / b_adapt=2 / b_bias=0 / direct=3 / weightb=1 / open_gop=0 / weightp=2 / keyint=250 / keyint_min=17 / scenecut=40 / intra_refresh=0 / rc_lookahead=60 / rc=crf / mbtree=1 / crf=17.0 / qcomp=0.60 / qpmin=0 / qpmax=69 / qpstep=4 / ip_ratio=1.40 / aq=3:0.50
Language                                 : English
Default                                  : Yes
Forced                                   : No

Audio
ID                                       : 2
Format                                   : AC-3
Format/Info                              : Audio Coding 3
Commercial name                          : Dolby Digital
Codec ID                                 : A_AC3
Duration                                 : 2 h 58 min
Bit rate mode                            : Constant
Bit rate                                 : 192 kb/s
Channel(s)                               : 2 channels
Channel layout                           : L R
Sampling rate                            : 48.0 kHz
Frame rate                               : 31.250 FPS (1536 SPF)
Compression mode                         : Lossy
Stream size                              : 245 MiB (2%)
Language                                 : zxx
Service kind                             : Complete Main
Default                                  : Yes
Forced                                   : No

Text #1
ID                                       : 3
Format                                   : UTF-8
Codec ID                                 : S_TEXT/UTF8
Codec ID/Info                            : UTF-8 Plain Text
Duration                                 : 2 h 58 min
Bit rate                                 : 7 b/s
Count of elements                        : 239
Stream size                              : 10.2 KiB (0%)
Title                                    : English
Language                                 : English
Default                                  : Yes
Forced                                   : Yes

Text #2
ID                                       : 4
Format                                   : PGS
Muxing mode                              : zlib
Codec ID                                 : S_HDMV/PGS
Codec ID/Info                            : Picture based subtitle format used on BDs/HD-DVDs
Duration                                 : 2 h 58 min
Bit rate                                 : 1 404 b/s
Count of elements                        : 478
Stream size                              : 1.79 MiB (0%)
Title                                    : English
Language                                 : English
Default                                  : No
Forced                                   : No

Menu
00:00:00.000                             : en:00:00:00.000
00:07:07.552                             : en:00:07:07.552
00:13:05.702                             : en:00:13:05.702
00:19:29.168                             : en:00:19:29.168
00:29:30.978                             : en:00:29:30.978
00:37:07.058                             : en:00:37:07.058
00:43:01.788                             : en:00:43:01.788
00:52:14.923                             : en:00:52:14.923
00:57:33.617                             : en:00:57:33.617
01:02:59.401                             : en:01:02:59.401
01:13:08.676                             : en:01:13:08.676
01:17:02.326                             : en:01:17:02.326
01:28:04.571                             : en:01:28:04.571
01:34:53.229                             : en:01:34:53.229
01:40:50.086                             : en:01:40:50.086
01:45:07.051                             : en:01:45:07.051
01:50:40.425                             : en:01:50:40.425
01:55:36.304                             : en:01:55:36.304
02:02:56.911                             : en:02:02:56.911
02:07:44.949                             : en:02:07:44.949
02:12:42.413                             : en:02:12:42.413
02:16:19.922                             : en:02:16:19.922
02:26:28.947                             : en:02:26:28.947
02:30:59.133                             : en:02:30:59.133
02:36:10.736                             : en:02:36:10.736
02:40:29.745                             : en:02:40:29.745
02:47:48.892                             : en:02:47:48.892
02:55:44.409                             : en:02:55:44.409





                                                                                                                                                                                                        
                                                                                                                                                                                                                                                                                                                                                                                                                                                                                                                                                                                                                                                                                                                                                                                                                                                        
ce6ba811d6d4a308efb8cdf0ff618689.torrent (19.76 KB, 下载次数: 0)

回复

使用道具 举报

小黑屋|百度云资源论坛 ( 闽ICP备16005822号-1 )

本网站所有资源来自网络,如无意中侵犯了您的权益,请发邮件至 [email protected],立即清除相关链接

GMT+8, 2022-5-19 19:10 , Processed in 0.069640 second(s), 17 queries .

Powered by Discuz! X3.4

© 2001-2017 Comsenz Inc.

快速回复 返回顶部 返回列表