百度云资源论坛

 找回密码
 立即注册
搜索
热搜: 百度云资源
开启左侧

法兰西特派 The.French.Dispatch.2021.720p.BluRay.x264.DTS-MT 6.78GB

[复制链接]
百度云电影 发表于 2021-12-20 12:48:47 | 显示全部楼层 |阅读模式
法兰西特派 The.French.Dispatch.2021.720p.BluRay.x264.DTS-MT 6.78GB                                                                                                                                                                                                                                                                                                                                                                                                                                                                                                                                        -->
帖子完整标题:法兰西特派 The.French.Dispatch.2021.720p.BluRay.x264.DTS-MT 6.78GB



c1ce209186e4d447cc3905479c6c6a34.jpg



◎译  名 法兰西特派/The French Dispatch of the Liberty, Kansas Evening Sun/法兰西派遣/法兰西特派周报(台)/法兰西诸事周报(港)/法国派遣/法式派遣
◎片  名 The French Dispatch
◎年  代 2021
◎产  地 美国,德国
◎类  别 剧情 / 喜剧 / 爱情
◎语  言 英语,法语
◎上映日期 2021-07-12(戛纳电影节) / 2021-10-22(美国) / 2021-12-14(美国网络)
◎豆瓣评分 7.8/10 from 13778 users
◎豆瓣链接 
◎片  长 108分钟
◎导  演 韦斯·安德森 Wes Anderson
◎编  剧 韦斯·安德森 Wes Anderson / 罗曼·科波拉 Roman Coppola / 雨果·吉尼斯 Hugo Guinness / 詹森·舒瓦兹曼 Jason Schwartzman
◎主  演 本尼西奥·德尔·托罗 Benicio del Toro
       艾德里安·布洛迪 Adrien Brody
       蒂尔达·斯文顿 Tilda Swinton
       蕾雅·赛杜 Léa Seydoux
       弗兰西斯·麦克多蒙德 Frances McDormand
       蒂莫西·柴勒梅德 Timothée Chalamet
       琳娜·库德里 Lyna Khoudri
       杰弗里·怀特 Jeffrey Wright
       马修·阿马立克 Mathieu Amalric
       斯蒂夫·朴 Steve Park
       比尔·默瑞 Bill Murray
       欧文·威尔逊 Owen Wilson
       鲍勃·巴拉班 Bob Balaban
       亨利·温克勒 Henry Winkler
       罗伊丝·史密斯 Lois Smith
       托尼·雷沃罗利 Tony Revolori
       德尼·梅诺谢 Denis Ménochet
       拉里·派恩 Larry Pine
       莫嘉娜·波兰斯基 Morgane Polanski
       费利克斯·莫阿蒂 Félix Moati
       克里斯托弗·瓦尔兹 Christoph Waltz
       塞西尔·德·弗朗斯 Cécile De France
       圭洛姆·加里尼 Guillaume Gallienne
       鲁伯特·弗兰德 Rupert Friend
       埃里克斯·劳瑟 Alex Lawther
       莉莉·塔耶布 Lily Taieb
       斯特凡·巴克 Stéphane Bak
       伊波利特·吉拉尔多 Hippolyte Girardot
       列维·施瑞博尔 Liev Schreiber
       威廉·达福 Willem Dafoe
       爱德华·诺顿 Edward Norton
       西尔莎·罗南 Saoirse Ronan
       达米安·勃纳尔 Damien Bonnard
       罗多尔·保利 Rodolphe Pauly
       安东尼娅·德斯普拉特 Antonia Desplat
       伊丽莎白·莫斯 Elisabeth Moss
       詹森·舒瓦兹曼 Jason Schwartzman
       费舍·史蒂芬斯 Fisher Stevens
       格里芬·邓恩 Griffin Dunne
       巴勃罗·保利 Pablo Pauly
       华莱士·沃洛达斯基 Wallace Wolodarsky
       安杰丽卡·贝蒂·费利尼 Anjelica Bette Fellini
       安杰丽卡·休斯顿 Anjelica Huston
       尼古拉·萨阿达 Nicolas Saada
       托希布·吉莫 Toheeb Jimoh
       樊尚·马凯涅 Vincent Macaigne
       本杰明·拉维赫尼 Benjamin Lavernhe
       山姆·海加斯 Sam Haygarth
       塞缪尔·布伦金 Samuel Blenkin
       尼古拉斯·克劳彻 Nicholas Croucher

◎标  签 美国 | 文艺 | 剧情 | 喜剧 | 法国 | 2021 | 电影 | 2020

◎简  介

  鬼才导演韦斯·安德森众所瞩目的《法兰西特派週报》,故事从二十世纪法国一间美国报社萌芽,一家驻法国城市的美国杂志社,将一段又一段的精彩故事放送给世人。藉由三则引人入胜的专题报导,带著观众展开冒险奇想。

◎获奖情况

  第74届戛纳电影节 ?(2021)
  主竞赛单元金棕榈奖(提名) 韦斯·安德森
  
  第73届戛纳电影节 ?(2020)
  入选过戛纳导演作品(提名) 韦斯·安德森
  
  第79届金球奖 ?(2022)
  电影类最佳原创配乐(提名) 亚历山大·德斯普拉
  
  第7届豆瓣电影年度榜单 ?(2020)
  最值得期待的外语电影(提名)
Video
ID                                       : 1
Format                                   : AVC
Format/Info                              : Advanced Video Codec
Format profile                           :
Format settings                          : CABAC / 9 Ref Frames
Format settings, CABAC                   : Yes
Format settings, Reference frames        : 9 frames
Codec ID                                 : V_MPEG4/ISO/AVC
Duration                                 : 1 h 47 min
Bit rate                                 : 7 514 kb/s
Width                                    : 1 280 pixels
Height                                   : 692 pixels
Display aspect ratio                     : 1.85:1
Frame rate mode                          : Constant
Frame rate                               : 23.976 (24000/1001/189150) FPS
Color space                              : YUV
Chroma subsampling                       : 4:2:0
Bit depth                                : 8 bits
Scan type                                : Progressive
Bits/(Pixel*Frame)                       : 0.354
Stream size                              : 5.65 GiB (83%)
Writing library                          : x264 core 157 r2938 2b00a84  Mod
Encoding settings                        : cabac=1 / ref=9 / deblock=1:-3:-3 / analyse=0x3:0x133 / me=umh / subme=10 / psy=1 / psy_rd=1.05:0.00 / mixed_ref=1 / me_range=32 / chroma_me=1 / trellis=2 / 8x8dct=1 / cqm=0 / deadzone=21,11 / fast_pskip=0 / chroma_qp_offset=-2 / threads=12 / lookahead_threads=2 / sliced_threads=0 / nr=0 / decimate=0 / interlaced=0 / bluray_compat=0 / constrained_intra=0 / bframes=8 / b_pyramid=2 / b_adapt=2 / b_bias=0 / direct=3 / weightb=1 / open_gop=0 / weightp=2 / keyint=250 / keyint_min=24 / scenecut=40 / intra_refresh=0 / rc_lookahead=250 / rc=crf / mbtree=0 / crf=16.8 / qcomp=0.60 / qpmin=0 / qpmax=69 / qpstep=4 / vbv_maxrate=62500 / vbv_bufsize=78125 / crf_max=0.0 / nal_hrd=none / filler=0 / ip_ratio=1.30 / pb_ratio=1.20 / aq=3:0.80
Language                                 : English
Default                                  : Yes
Forced                                   : No
Color range                              : Limited
Color primaries                          : BT.709
Matrix coefficients                      : BT.709

Audio
ID                                       : 2
Format                                   : DTS
Format/Info                              : Digital Theater Systems
Codec ID                                 : A_DTS
Duration                                 : 1 h 47 min
Bit rate mode                            : Constant
Bit rate                                 : 1 509 kb/s
Channel(s)                               : 6 channels
Channel layout                           : C L R Ls Rs LFE
Sampling rate                            : 48.0 kHz
Frame rate                               : 93.750 FPS (512 SPF)
Bit depth                                : 24 bits
Compression mode                         : Lossy
Stream size                              : 1.13 GiB (17%)
Language                                 : English
Default                                  : Yes
Forced                                   : No

Text #1
ID                                       : 3
Format                                   : UTF-8
Codec ID                                 : S_TEXT/UTF8
Codec ID/Info                            : UTF-8 Plain Text
Duration                                 : 1 h 41 min
Bit rate                                 : 69 b/s
Count of elements                        : 1407
Stream size                              : 51.4 KiB (0%)
Language                                 : English
Default                                  : Yes
Forced                                   : No

Text #2
ID                                       : 4
Format                                   : UTF-8
Codec ID                                 : S_TEXT/UTF8
Codec ID/Info                            : UTF-8 Plain Text
Duration                                 : 1 h 42 min
Bit rate                                 : 77 b/s
Count of elements                        : 1671
Stream size                              : 57.7 KiB (0%)
Title                                    : SDH
Language                                 : English
Default                                  : No
Forced                                   : No

Menu
00:00:00.000                             : en:Chapter 01
00:06:08.660                             : en:Chapter 02
00:10:22.372                             : en:Chapter 03
00:17:03.439                             : en:Chapter 04
00:21:19.153                             : en:Chapter 05
00:26:49.942                             : en:Chapter 06
00:30:55.729                             : en:Chapter 07
00:37:48.224                             : en:Chapter 08
00:43:52.630                             : en:Chapter 09
00:49:03.399                             : en:Chapter 10
00:58:14.825                             : en:Chapter 11
01:04:48.218                             : en:Chapter 12
01:09:54.982                             : en:Chapter 13
01:20:26.363                             : en:Chapter 14
01:28:28.636                             : en:Chapter 15
01:34:26.285                             : en:Chapter 16
01:40:58.594                             : en:Chapter 17
01:43:16.732                             : en:Chapter 18

fba3e0f4bc265d7ab880514cc7032368.png

[/url]5eaee9059d6c5714978bab3e276cd497.png

[/url]fb4949fe825d8bd65b09a59f3efd96ef.png

[/url]



                                                                                                                                                                                                        
                                                                                                                                                                                                                                                                                                                                                                                                                                                                                                                                                                                                                                                                                                                                                                                                                                                        
bb8b79995ed7049c75858f887425f790.torrent (17.58 KB, 下载次数: 0)

回复

使用道具 举报

小黑屋|百度云资源论坛 ( 闽ICP备16005822号-1 )

本网站所有资源来自网络,如无意中侵犯了您的权益,请发邮件至 [email protected],立即清除相关链接

GMT+8, 2022-8-10 03:57 , Processed in 0.083744 second(s), 17 queries .

Powered by Discuz! X3.4

© 2001-2017 Comsenz Inc.

快速回复 返回顶部 返回列表