百度云资源论坛

 找回密码
 立即注册
搜索
热搜: 百度云资源
开启左侧

火花兄弟 The.Sparks.Brothers.2021.720p.BluRay.x264-DEV0 6.06GB

[复制链接]
百度云电影 发表于 2021-12-20 12:48:49 | 显示全部楼层 |阅读模式
火花兄弟 The.Sparks.Brothers.2021.720p.BluRay.x264-DEV0 6.06GB                                                                                                                                                                                                                                                                                                                                                                                                                                                                                                                                        -->
帖子完整标题:火花兄弟 The.Sparks.Brothers.2021.720p.BluRay.x264-DEV0 6.06GB



72e5c8e900615da25e32b642a4fb367f.jpg



◎译  名 火花兄弟
◎片  名 The Sparks Brothers
◎年  代 2021
◎产  地 英国
◎类  别 纪录片 / 音乐
◎语  言 英语
◎上映日期 2021-01-30(圣丹斯电影节) / 2021-07-30(英国)
◎豆瓣评分 8.0/10 from 101 users
◎豆瓣链接 
◎片  长 135分钟
◎导  演 埃德加·赖特 Edgar Wright
◎主  演 罗恩·梅尔 Ron Mael
       罗素·梅尔 Russell Mael
       贝克 Beck
       简·威德林 Jane Wiedlin
       Tony Visconti Tony Visconti
       麦克·梅尔斯 Mike Myers
       弗莱德·阿米森 Fred Armisen
       乔治·莫罗德 Giorgio Moroder
       阿尔·杨科维克 'Weird Al' Yankovic
       Muff Winwood Muff Winwood
       Nick Rhodes Nick Rhodes
       史蒂夫·琼斯 Steve Jones
       John Taylor John Taylor
       托德·朗德格伦 Todd Rundgren
       弗利 Flea
       詹森·舒瓦兹曼 Jason Schwartzman
       乔纳森·罗斯 Jonathan Ross
       埃米·谢尔曼-帕拉迪诺 Amy Sherman-Palladino
       丹尼尔·帕拉迪诺 Daniel Palladino
       尼尔·盖曼 Neil Gaiman
       斯蒂芬·莫里斯 Stephen Morris
       Gillian Gilbert Gillian Gilbert
       帕顿·奥斯瓦尔特 Patton Oswalt
       伯纳德·巴勒特 Bernard Butler
       斯科特·奥克尔曼 Scott Aukerman
       Chris Difford Chris Difford
       Martyn Ware Martyn Ware
       Alex Kapranos Alex Kapranos
       Paul Morley Paul Morley
       帕梅拉·德斯·巴雷斯 Pamela Des Barres
       Roddy Bottum Roddy Bottum
       杰克·安东诺夫 Jack Antonoff
       Vince Clarke Vince Clarke
       安迪·贝尔 Andy Bell
       比约克 Bj?rk
       马克·加蒂斯 Mark Gatiss
       Nick Heyward Nick Heyward
       瑟斯顿·摩尔 Thurston Moore
       亚当·布克斯顿 Adam Buxton
       埃德加·赖特 Edgar Wright
       西蒙·佩吉 Simon Pegg
       尼克·弗罗斯特 Nick Frost

◎标  签 纪录片 | 音乐 | 英国 | 2021 | 美国 | 2020s | 圣丹斯电影节 | music

◎简  介

  Sparks乐队由拉塞尔·梅尔、罗恩·梅尔两兄弟于1972年创立。该片记录了Sparks乐队几十年的职业生涯和影响力。
Video
ID                                       : 1
Format                                   : AVC
Format/Info                              : Advanced Video Codec
Format profile                           :
Format settings                          : CABAC / 9 Ref Frames
Format settings, CABAC                   : Yes
Format settings, Reference frames        : 9 frames
Codec ID                                 : V_MPEG4/ISO/AVC
Duration                                 : 2 h 21 min
Bit rate                                 : 5 486 kb/s
Width                                    : 1 280 pixels
Height                                   : 694 pixels
Display aspect ratio                     : 1.85:1
Frame rate mode                          : Constant
Frame rate                               : 23.976 (24000/1001/189150) FPS
Color space                              : YUV
Chroma subsampling                       : 4:2:0
Bit depth                                : 8 bits
Scan type                                : Progressive
Bits/(Pixel*Frame)                       : 0.258
Stream size                              : 5.41 GiB (89%)
Writing library                          : x264 core 164 r3079 d9a19f0
Encoding settings                        : cabac=1 / ref=9 / deblock=1:-3:-3 / analyse=0x3:0x133 / me=umh / subme=10 / psy=1 / psy_rd=1.00:0.15 / mixed_ref=1 / me_range=24 / chroma_me=1 / trellis=2 / 8x8dct=1 / cqm=0 / deadzone=21,11 / fast_pskip=1 / chroma_qp_offset=-3 / threads=18 / lookahead_threads=3 / sliced_threads=0 / nr=0 / decimate=1 / interlaced=0 / bluray_compat=0 / constrained_intra=0 / bframes=8 / b_pyramid=2 / b_adapt=2 / b_bias=0 / direct=3 / weightb=1 / open_gop=0 / weightp=2 / keyint=250 / keyint_min=23 / scenecut=40 / intra_refresh=0 / rc_lookahead=60 / rc=crf / mbtree=1 / crf=17.0 / qcomp=0.60 / qpmin=0 / qpmax=69 / qpstep=4 / ip_ratio=1.40 / aq=3:0.60
Language                                 : English
Default                                  : Yes
Forced                                   : No

Audio
ID                                       : 2
Format                                   : AC-3
Format/Info                              : Audio Coding 3
Commercial name                          : Dolby Digital
Codec ID                                 : A_AC3
Duration                                 : 2 h 21 min
Bit rate mode                            : Constant
Bit rate                                 : 640 kb/s
Channel(s)                               : 6 channels
Channel layout                           : L R C LFE Ls Rs
Sampling rate                            : 48.0 kHz
Frame rate                               : 31.250 FPS (1536 SPF)
Compression mode                         : Lossy
Stream size                              : 646 MiB (10%)
Language                                 : English
Service kind                             : Complete Main
Default                                  : Yes
Forced                                   : No

Text
ID                                       : 3
Format                                   : PGS
Muxing mode                              : zlib
Codec ID                                 : S_HDMV/PGS
Codec ID/Info                            : Picture based subtitle format used on BDs/HD-DVDs
Duration                                 : 2 h 20 min
Bit rate                                 : 24.6 kb/s
Count of elements                        : 6432
Stream size                              : 24.8 MiB (0%)
Title                                    : English SDH
Language                                 : English
Default                                  : No
Forced                                   : No

Menu
00:00:00.000                             : en:00:00:00.000
00:08:51.114                             : en:00:08:51.114
00:15:40.731                             : en:00:15:40.731
00:23:55.476                             : en:00:23:55.476
00:30:04.219                             : en:00:30:04.219
00:36:31.981                             : en:00:36:31.981
00:43:29.482                             : en:00:43:29.482
00:50:34.198                             : en:00:50:34.198
00:55:54.601                             : en:00:55:54.601
01:00:20.534                             : en:01:00:20.534
01:09:43.137                             : en:01:09:43.137
01:17:47.246                             : en:01:17:47.246
01:24:22.349                             : en:01:24:22.349
01:33:48.122                             : en:01:33:48.122
01:40:03.998                             : en:01:40:03.998
01:45:47.216                             : en:01:45:47.216
01:50:57.693                             : en:01:50:57.693
01:57:34.214                             : en:01:57:34.214
02:08:32.038                             : en:02:08:32.038
02:15:32.499                             : en:02:15:32.499

a4f27794f3ae43f6bf6022acd4e36fa7.jpg





                                                                                                                                                                                                        
                                                                                                                                                                                                                                                                                                                                                                                                                                                                                                                                                                                                                                                                                                                                                                                                                                                        
aae443b62ee38335c04a86fef6b9ea61.torrent (15.9 KB, 下载次数: 0)

回复

使用道具 举报

小黑屋|百度云资源论坛 ( 闽ICP备16005822号-1 )

本网站所有资源来自网络,如无意中侵犯了您的权益,请发邮件至 [email protected],立即清除相关链接

GMT+8, 2022-8-8 10:12 , Processed in 0.069277 second(s), 17 queries .

Powered by Discuz! X3.4

© 2001-2017 Comsenz Inc.

快速回复 返回顶部 返回列表