百度云资源论坛

 找回密码
 立即注册
搜索
热搜: 百度云资源
开启左侧

爱的许诺 Promises.2021.1080p.BluRay.x264-JustWatch 14.85GB

[复制链接]
百度云资源 发表于 2022-6-23 16:03:56 | 显示全部楼层 |阅读模式
爱的许诺 Promises.2021.1080p.BluRay.x264-JustWatch 14.85GB                                                                                                                                                                                                                                                                                                                                                                                                                                                                                                                                        -->
帖子完整标题:爱的许诺 Promises.2021.1080p.BluRay.x264-JustWatch 14.85GB



5ee5e04bcd7cc24ac784bc4cc7755a56.jpg



◎译  名 爱的许诺
◎片  名 Promises
◎年  代 2021
◎产  地 意大利
◎类  别 剧情
◎语  言 英语
◎上映日期 2021-10(罗马电影节)
◎IMDb链接 
◎豆瓣链接 
◎片  长 110分钟
◎导  演 阿曼达·斯特斯 Amanda Sthers (id:1001691)
◎编  剧 阿曼达·斯特斯 Amanda Sthers (id:1001691)
◎演  员 凯利·蕾莉 Kelly Reilly (id:1009283)
       让·雷诺 Jean Reno (id:1025182)
       克里斯·马歇尔 Kris Marshall (id:1000215)
       克里斯蒂亚诺·特拉瓦格利奥利 Cristiano Travaglioli (id:1305299)

◎简  介
  When Alexander and Laura meet during a party what they feel for each other is clear, but she’s about to get married and Alexander shares a daughter with his beautiful wife.Alexander’s childhood memories constantly resurface, leading him to reflect on what was, what will be, and what could have been.
Video
ID                                       : 1
Format                                   : AVC
Format/Info                              : Advanced Video Codec
Format profile                           :
Format settings                          : CABAC / 5 Ref Frames
Format settings, CABAC                   : Yes
Format settings, Reference frames        : 5 frames
Codec ID                                 : V_MPEG4/ISO/AVC
Duration                                 : 1 h 53 min
Bit rate                                 : 16.8 Mb/s
Width                                    : 1 920 pixels
Height                                   : 804 pixels
Display aspect ratio                     : 2.40:1
Frame rate mode                          : Constant
Frame rate                               : 24.000 FPS
Color space                              : YUV
Chroma subsampling                       : 4:2:0
Bit depth                                : 8 bits
Scan type                                : Progressive
Bits/(Pixel*Frame)                       : 0.455
Stream size                              : 13.4 GiB (90%)
Writing library                          : x264 core 164 r3094 bfc87b7
Encoding settings                        : cabac=1 / ref=5 / deblock=1:-3:-3 / analyse=0x3:0x133 / me=umh / subme=9 / psy=1 / psy_rd=1.00:0.00 / mixed_ref=1 / me_range=16 / chroma_me=1 / trellis=2 / 8x8dct=1 / cqm=0 / deadzone=21,11 / fast_pskip=0 / chroma_qp_offset=-2 / threads=25 / lookahead_threads=2 / sliced_threads=0 / nr=0 / decimate=1 / interlaced=0 / bluray_compat=0 / constrained_intra=0 / bframes=3 / b_pyramid=2 / b_adapt=2 / b_bias=0 / direct=3 / weightb=1 / open_gop=0 / weightp=2 / keyint=250 / keyint_min=24 / scenecut=40 / intra_refresh=0 / rc_lookahead=60 / rc=crf / mbtree=1 / crf=17.0 / qcomp=0.60 / qpmin=0 / qpmax=69 / qpstep=4 / ip_ratio=1.40 / aq=1:1.00
Language                                 : English
Default                                  : Yes
Forced                                   : No

Audio
ID                                       : 2
Format                                   : DTS XLL
Format/Info                              : Digital Theater Systems
Commercial name                          : DTS-HD Master Audio
Codec ID                                 : A_DTS
Duration                                 : 1 h 53 min
Bit rate mode                            : Variable
Bit rate                                 : 1 788 kb/s
Channel(s)                               : 6 channels
Channel layout                           : C L R Ls Rs LFE
Sampling rate                            : 48.0 kHz
Frame rate                               : 93.750 FPS (512 SPF)
Bit depth                                : 16 bits
Compression mode                         : Lossless
Stream size                              : 1.42 GiB (10%)
Language                                 : English
Default                                  : Yes
Forced                                   : No

Text #1
ID                                       : 3
Format                                   : PGS
Muxing mode                              : zlib
Codec ID                                 : S_HDMV/PGS
Codec ID/Info                            : Picture based subtitle format used on BDs/HD-DVDs
Duration                                 : 1 h 43 min
Bit rate                                 : 28.0 kb/s
Count of elements                        : 2072
Stream size                              : 20.8 MiB (0%)
Language                                 : German
Default                                  : No
Forced                                   : No

Text #2
ID                                       : 4
Format                                   : PGS
Muxing mode                              : zlib
Codec ID                                 : S_HDMV/PGS
Codec ID/Info                            : Picture based subtitle format used on BDs/HD-DVDs
Duration                                 : 1 h 37 min
Bit rate                                 : 901 b/s
Count of elements                        : 80
Stream size                              : 646 KiB (0%)
Language                                 : German
Default                                  : No
Forced                                   : No

Menu
00:00:00.000                             : en:Chapter 01
00:09:07.958                             : en:Chapter 02
00:17:50.292                             : en:Chapter 03
00:28:02.625                             : en:Chapter 04
00:37:32.125                             : en:Chapter 05
00:48:02.083                             : en:Chapter 06
00:55:46.208                             : en:Chapter 07
01:05:17.625                             : en:Chapter 08
01:15:30.042                             : en:Chapter 09
01:23:02.917                             : en:Chapter 10
01:33:51.583                             : en:Chapter 11
01:44:37.417                             : en:Chapter 12





                                                                                                                                                                                                        
                                                                                                                                                                                                                                                                                                                                                                                                                                                                                                                                                                                                                                                                                                                                                                                                                                                        
96312a00c22d56aff0a73fb26ca8a18d.torrent (19.29 KB, 下载次数: 0)

回复

使用道具 举报

小黑屋|百度云资源论坛 ( 闽ICP备16005822号-1 )

本网站所有资源来自网络,如无意中侵犯了您的权益,请发邮件至 [email protected],立即清除相关链接

GMT+8, 2022-8-8 09:18 , Processed in 0.071731 second(s), 17 queries .

Powered by Discuz! X3.4

© 2001-2017 Comsenz Inc.

快速回复 返回顶部 返回列表