百度云资源论坛

 找回密码
 立即注册
搜索
热搜: 百度云资源
开启左侧

父亲的身份 Fatherhood.2021.1080p.BluRay.x264-PiGNUS 10.33GB

[复制链接]
百度云电影 发表于 2022-6-23 16:03:58 | 显示全部楼层 |阅读模式
父亲的身份 Fatherhood.2021.1080p.BluRay.x264-PiGNUS 10.33GB                                                                                                                                                                                                                                                                                                                                                                                                                                                                                                                                        -->
帖子完整标题:父亲的身份 Fatherhood.2021.1080p.BluRay.x264-PiGNUS 10.33GB



5fec083cf07156e8f3730bf8f916b755.jpg



◎译  名 父亲的身份 / 爸爸进行式(港) / 为父进行式(台) / 爸爸进行时 / 给麦迪的两个吻 / 为父进行时 / Two Kisses for Maddy
◎片  名 Fatherhood
◎年  代 2021
◎产  地 美国
◎类  别 剧情
◎语  言 英语
◎上映日期 2021-06-18(美国网络)
◎IMDb链接 
◎豆瓣评分 6.5/10 (1174人评价)
◎豆瓣链接 
◎片  长 109分钟
◎导  演 保罗·韦兹 Paul Weitz (id:1300655)
◎编  剧 达娜·史蒂文斯 Dana Stevens (id:1328358)
       保罗·韦兹 Paul Weitz (id:1300655)
◎演  员 凯文·哈特 Kevin Hart (id:1286162)
       朱利安·凯西 Julian Casey (id:1337404)
       霍莉·G·弗兰克尔 Holly G. Frankel (id:1080627)
       亚瑟·霍尔顿 Arthur Holden (id:1374236)
       阿德里安·M·蒙波因特 Adrian M. Mompoint (id:1413072)
       路易斯·奥利瓦 Luis Oliva (id:1128172)
       保罗·雷瑟 Paul Reiser (id:1000222)
       德汪达·怀斯 DeWanda Wise (id:1418807)
       阿尔法·伍达德 Alfre Woodard (id:1041159)
       里尔·莱尔·哈瓦瑞 Lil Rel Howery (id:1369571)
       艾伦·大卫 Ellen David (id:1280977)
       黛博拉·艾里德 Deborah Ayorinde (id:1369399)
       安东尼·卡里根 Anthony Carrigan (id:1352164)
       斯蒂芬妮·科斯塔 Stephanie Costa (id:1397487)
       玛丽莲·迪恩-罗比齐 Mylène Dinh-Robic (id:1188884)
       查宁·塔图姆 Channing Tatum (id:1031224)
       贝莉·塞恩 Bailey Thain (id:1446877)
       伊内斯·费格霍利·波松 Ines Feghouli Bozon (id:1446879)

◎简  介
  这部暖心、有趣又感人的影片根据真人真事改编,凯文·哈特在剧中饰演的鳏夫在痛失爱妻后承担起一项艰巨任务:当个父亲。
Video
ID                                       : 1
Format                                   : AVC
Format/Info                              : Advanced Video Codec
Format profile                           :
Format settings                          : CABAC / 5 Ref Frames
Format settings, CABAC                   : Yes
Format settings, Reference frames        : 5 frames
Codec ID                                 : V_MPEG4/ISO/AVC
Duration                                 : 1 h 49 min
Bit rate                                 : 11.2 Mb/s
Width                                    : 1 920 pixels
Height                                   : 800 pixels
Display aspect ratio                     : 2.40:1
Frame rate mode                          : Constant
Frame rate                               : 23.976 (24000/1001/189150) FPS
Color space                              : YUV
Chroma subsampling                       : 4:2:0
Bit depth                                : 8 bits
Scan type                                : Progressive
Bits/(Pixel*Frame)                       : 0.305
Stream size                              : 8.56 GiB (83%)
Writing library                          : x264 core 164 r3095 baee400
Encoding settings                        : cabac=1 / ref=5 / deblock=1:-3:-3 / analyse=0x3:0x133 / me=umh / subme=9 / psy=1 / psy_rd=1.00:0.00 / mixed_ref=1 / me_range=16 / chroma_me=1 / trellis=2 / 8x8dct=1 / cqm=0 / deadzone=21,11 / fast_pskip=1 / chroma_qp_offset=-2 / threads=25 / lookahead_threads=2 / sliced_threads=0 / nr=0 / decimate=1 / interlaced=0 / bluray_compat=0 / constrained_intra=0 / bframes=3 / b_pyramid=2 / b_adapt=2 / b_bias=0 / direct=3 / weightb=1 / open_gop=0 / weightp=2 / keyint=250 / keyint_min=23 / scenecut=40 / intra_refresh=0 / rc_lookahead=60 / rc=crf / mbtree=1 / crf=15.5 / qcomp=0.60 / qpmin=0 / qpmax=69 / qpstep=4 / ip_ratio=1.40 / aq=1:1.00
Default                                  : Yes
Forced                                   : No

Audio
ID                                       : 2
Format                                   : DTS XLL
Format/Info                              : Digital Theater Systems
Commercial name                          : DTS-HD Master Audio
Codec ID                                 : A_DTS
Duration                                 : 1 h 49 min
Bit rate mode                            : Variable
Bit rate                                 : 2 108 kb/s
Channel(s)                               : 6 channels
Channel layout                           : C L R Ls Rs LFE
Sampling rate                            : 48.0 kHz
Frame rate                               : 93.750 FPS (512 SPF)
Bit depth                                : 16 bits
Compression mode                         : Lossless
Stream size                              : 1.61 GiB (16%)
Language                                 : English
Default                                  : Yes
Forced                                   : No

Text #1
ID                                       : 3
Format                                   : PGS
Muxing mode                              : zlib
Codec ID                                 : S_HDMV/PGS
Codec ID/Info                            : Picture based subtitle format used on BDs/HD-DVDs
Duration                                 : 1 h 44 min
Bit rate                                 : 51.7 kb/s
Count of elements                        : 3998
Stream size                              : 38.6 MiB (0%)
Title                                    : English SDH
Language                                 : English
Default                                  : No
Forced                                   : No

Text #2
ID                                       : 4
Format                                   : PGS
Muxing mode                              : zlib
Codec ID                                 : S_HDMV/PGS
Codec ID/Info                            : Picture based subtitle format used on BDs/HD-DVDs
Duration                                 : 1 h 42 min
Bit rate                                 : 47.6 kb/s
Count of elements                        : 3640
Stream size                              : 34.9 MiB (0%)
Title                                    : English
Language                                 : English
Default                                  : No
Forced                                   : No

Text #3
ID                                       : 5
Format                                   : PGS
Muxing mode                              : zlib
Codec ID                                 : S_HDMV/PGS
Codec ID/Info                            : Picture based subtitle format used on BDs/HD-DVDs
Duration                                 : 1 h 48 min
Bit rate                                 : 38.2 kb/s
Count of elements                        : 3660
Stream size                              : 29.6 MiB (0%)
Title                                    : Chinese
Language                                 : Chinese
Default                                  : No
Forced                                   : No

Text #4
ID                                       : 6
Format                                   : PGS
Muxing mode                              : zlib
Codec ID                                 : S_HDMV/PGS
Codec ID/Info                            : Picture based subtitle format used on BDs/HD-DVDs
Duration                                 : 1 h 47 min
Bit rate                                 : 33.1 kb/s
Count of elements                        : 3472
Stream size                              : 25.4 MiB (0%)
Title                                    : Chinese
Language                                 : Chinese
Default                                  : No
Forced                                   : No

Text #5
ID                                       : 7
Format                                   : PGS
Muxing mode                              : zlib
Codec ID                                 : S_HDMV/PGS
Codec ID/Info                            : Picture based subtitle format used on BDs/HD-DVDs
Duration                                 : 1 h 48 min
Bit rate                                 : 37.7 kb/s
Count of elements                        : 3528
Stream size                              : 29.1 MiB (0%)
Title                                    : French
Language                                 : French
Default                                  : No
Forced                                   : No

Text #6
ID                                       : 8
Format                                   : PGS
Muxing mode                              : zlib
Codec ID                                 : S_HDMV/PGS
Codec ID/Info                            : Picture based subtitle format used on BDs/HD-DVDs
Duration                                 : 1 h 47 min
Bit rate                                 : 44.3 kb/s
Count of elements                        : 3652
Stream size                              : 34.1 MiB (0%)
Title                                    : Indonesian
Language                                 : Indonesian
Default                                  : No
Forced                                   : No

Text #7
ID                                       : 9
Format                                   : PGS
Muxing mode                              : zlib
Codec ID                                 : S_HDMV/PGS
Codec ID/Info                            : Picture based subtitle format used on BDs/HD-DVDs
Duration                                 : 1 h 47 min
Bit rate                                 : 34.4 kb/s
Count of elements                        : 3820
Stream size                              : 26.5 MiB (0%)
Title                                    : Korean
Language                                 : Korean
Default                                  : No
Forced                                   : No

Text #8
ID                                       : 10
Format                                   : PGS
Muxing mode                              : zlib
Codec ID                                 : S_HDMV/PGS
Codec ID/Info                            : Picture based subtitle format used on BDs/HD-DVDs
Duration                                 : 1 h 48 min
Bit rate                                 : 39.8 kb/s
Count of elements                        : 3666
Stream size                              : 30.8 MiB (0%)
Title                                    : Portuguese
Language                                 : Portuguese
Default                                  : No
Forced                                   : No

Text #9
ID                                       : 11
Format                                   : PGS
Muxing mode                              : zlib
Codec ID                                 : S_HDMV/PGS
Codec ID/Info                            : Picture based subtitle format used on BDs/HD-DVDs
Duration                                 : 1 h 47 min
Bit rate                                 : 35.6 kb/s
Count of elements                        : 3382
Stream size                              : 27.4 MiB (0%)
Title                                    : Spanish
Language                                 : Spanish
Default                                  : No
Forced                                   : No

Text #10
ID                                       : 12
Format                                   : PGS
Muxing mode                              : zlib
Codec ID                                 : S_HDMV/PGS
Codec ID/Info                            : Picture based subtitle format used on BDs/HD-DVDs
Duration                                 : 1 h 47 min
Bit rate                                 : 43.5 kb/s
Count of elements                        : 3662
Stream size                              : 33.5 MiB (0%)
Title                                    : Thai
Language                                 : Thai
Default                                  : No
Forced                                   : No

Menu
00:00:00.000                             : en:Chapter 01
00:07:07.552                             : en:Chapter 02
00:13:49.787                             : en:Chapter 03
00:18:34.864                             : en:Chapter 04
00:26:44.853                             : en:Chapter 05
00:33:29.674                             : en:Chapter 06
00:40:14.996                             : en:Chapter 07
00:44:20.366                             : en:Chapter 08
00:50:51.674                             : en:Chapter 09
00:55:13.936                             : en:Chapter 10
01:01:00.866                             : en:Chapter 11
01:07:02.769                             : en:Chapter 12
01:12:45.570                             : en:Chapter 13
01:19:52.246                             : en:Chapter 14
01:26:13.085                             : en:Chapter 15
01:33:38.446                             : en:Chapter 16

6b80fb1aa4f354f2e94034c4e9ff7ecc.jpg





                                                                                                                                                                                                        
                                                                                                                                                                                                                                                                                                                                                                                                                                                                                                                                                                                                                                                                                                                                                                                                                                                        
967c1dc4ada005a0de2bb4487f46fd10.torrent (13.64 KB, 下载次数: 0)

回复

使用道具 举报

小黑屋|百度云资源论坛 ( 闽ICP备16005822号-1 )

本网站所有资源来自网络,如无意中侵犯了您的权益,请发邮件至 [email protected],立即清除相关链接

GMT+8, 2022-8-8 08:36 , Processed in 0.072749 second(s), 17 queries .

Powered by Discuz! X3.4

© 2001-2017 Comsenz Inc.

快速回复 返回顶部 返回列表