百度云资源论坛

 找回密码
 立即注册
搜索
热搜: 百度云资源
开启左侧

摇滚外星人的旅程 Voyage.of.the.Rock.Aliens.1984.REMASTERED.1080p.BluRay.x264.DTS ...

[复制链接]
百度云资源 发表于 2022-6-23 16:04:00 | 显示全部楼层 |阅读模式
摇滚外星人的旅程 Voyage.of.the.Rock.Aliens.1984.REMASTERED.1080p.BluRay.x264.DTS-FGT 8.7                                                                                                                                                                                                                                                                                                                                                                                                                                                                                                                                        -->
帖子完整标题:摇滚外星人的旅程 Voyage.of.the.Rock.Aliens.1984.REMASTERED.1080p.BluRay.x264.DTS-FGT 8.70GB



4b3681ce6a3948abe03f5844da77ce3a.jpg



◎译  名 摇滚外星人的旅程
◎片  名 Voyage of the Rock Aliens
◎年  代 1984
◎产  地 美国
◎类  别 喜剧 / 科幻 / 歌舞
◎语  言 英语
◎上映日期 1988-02-08
◎IMDb链接 
◎豆瓣链接 
◎片  长 97 分钟
◎导  演 詹姆斯·法戈 James Fargo (id:1023345)
◎演  员 Marc Jackson Marc Jackson (id:1183547)
       Julian 'Sifu' T. Reid Julian 'Sifu' T. Reid (id:1174597)
       Tom Nolan Tom Nolan (id:1130228)
       艾莉森·拉·普拉卡 Alison La Placa (id:1114361)
       迈克尔·贝里曼 Michael Berryman (id:1064035)
       皮娅·扎多拉 Pia Zadora (id:1056082)
       克莱格·谢佛 Craig Sheffer (id:1048157)
       鲁思·戈登 Ruth Gordon (id:1041189)
       杰梅因·杰克逊 Jermaine Jackson (id:1036708)
       彼特·库伦 Peter Cullen (id:1025212)
       Peter Stelzer Peter Stelzer (id:1298348)
       Mike Curb Mike Curb (id:1015081)
       Jack White Jack White (id:1164772)
       吉尔伯特·泰勒 Gilbert Taylor (id:1003501)
       Rose Librizzi Rose Librizzi (id:1290014)
       Conrad Irving Conrad Irving (id:1287379)
       Stuart Fleming Stuart Fleming (id:1026288)
       Barbara Gelman Barbara Gelman (id:1284691)
       Peter Chesney Peter Chesney (id:1280616)

◎简  介
  Aliens land in the town of "Speelburgh" searching for the source of rock & roll. They find trouble with Dee Dee, Frankie and the pack.
Video
ID                                       : 1
Format                                   : AVC
Format/Info                              : Advanced Video Codec
Format profile                           :
Format settings                          : CABAC / 4 Ref Frames
Format settings, CABAC                   : Yes
Format settings, Reference frames        : 4 frames
Codec ID                                 : V_MPEG4/ISO/AVC
Duration                                 : 1 h 35 min
Bit rate                                 : 11.5 Mb/s
Width                                    : 1 920 pixels
Height                                   : 1 036 pixels
Display aspect ratio                     : 1.85:1
Frame rate mode                          : Constant
Frame rate                               : 23.976 (24000/1001/189150) FPS
Color space                              : YUV
Chroma subsampling                       : 4:2:0
Bit depth                                : 8 bits
Scan type                                : Progressive
Bits/(Pixel*Frame)                       : 0.241
Stream size                              : 7.69 GiB (88%)
Writing library                          : x264 core 148 r2795M aaa9aa8
Encoding settings                        : cabac=1 / ref=4 / deblock=1:-2:-2 / analyse=0x3:0x113 / me=umh / subme=9 / psy=1 / psy_rd=1.00:0.15 / mixed_ref=1 / me_range=16 / chroma_me=1 / trellis=2 / 8x8dct=1 / cqm=0 / deadzone=21,11 / fast_pskip=1 / chroma_qp_offset=-3 / threads=24 / lookahead_threads=3 / sliced_threads=0 / nr=0 / decimate=1 / interlaced=0 / bluray_compat=0 / constrained_intra=0 / bframes=3 / b_pyramid=2 / b_adapt=1 / b_bias=0 / direct=3 / weightb=1 / open_gop=0 / weightp=2 / keyint=250 / keyint_min=25 / scenecut=40 / intra_refresh=0 / rc_lookahead=50 / rc=2pass / mbtree=1 / bitrate=11500 / ratetol=1.0 / qcomp=0.60 / qpmin=0 / qpmax=69 / qpstep=4 / cplxblur=20.0 / qblur=0.5 / vbv_maxrate=31250 / vbv_bufsize=31250 / nal_hrd=none / filler=0 / ip_ratio=1.40 / aq=1:1.00
Default                                  : Yes
Forced                                   : No

Audio
ID                                       : 2
Format                                   : DTS
Format/Info                              : Digital Theater Systems
Codec ID                                 : A_DTS
Duration                                 : 1 h 35 min
Bit rate mode                            : Constant
Bit rate                                 : 1 509 kb/s
Channel(s)                               : 6 channels
Channel layout                           : C L R Ls Rs LFE
Sampling rate                            : 48.0 kHz
Frame rate                               : 93.750 FPS (512 SPF)
Bit depth                                : 24 bits
Compression mode                         : Lossy
Stream size                              : 1.01 GiB (12%)
Language                                 : English
Default                                  : Yes
Forced                                   : No

Text #1
ID                                       : 3
Format                                   : UTF-8
Codec ID                                 : S_TEXT/UTF8
Codec ID/Info                            : UTF-8 Plain Text
Duration                                 : 1 h 34 min
Bit rate                                 : 58 b/s
Count of elements                        : 1359
Stream size                              : 40.7 KiB (0%)
Language                                 : English
Default                                  : Yes
Forced                                   : No

Text #2
ID                                       : 4
Format                                   : UTF-8
Codec ID                                 : S_TEXT/UTF8
Codec ID/Info                            : UTF-8 Plain Text
Duration                                 : 1 h 35 min
Bit rate                                 : 63 b/s
Count of elements                        : 1541
Stream size                              : 44.5 KiB (0%)
Title                                    : SDH
Language                                 : English
Default                                  : No
Forced                                   : No

Menu
00:00:00.000                             : en:Chapter 01
00:21:51.811                             : en:Chapter 02
00:42:15.533                             : en:Chapter 03
00:58:50.027                             : en:Chapter 04
01:17:14.630                             : en:Chapter 05

7d672f8f28a0a5150016ed141fd0f4cd.png

[/url]754ec7f3832cf3ef101d5a2a51986e55.png

[/url]b3461d616472b2ab2d3a027b0de2bd6f.png

[/url]



                                                                                                                                                                                                        
                                                                                                                                                                                                                                                                                                                                                                                                                                                                                                                                                                                                                                                                                                                                                                                                                                                        
da3d8e5210b70d3f9fd70268a0307ee8.torrent (22.39 KB, 下载次数: 0)

回复

使用道具 举报

小黑屋|百度云资源论坛 ( 闽ICP备16005822号-1 )

本网站所有资源来自网络,如无意中侵犯了您的权益,请发邮件至 [email protected],立即清除相关链接

GMT+8, 2022-8-10 04:04 , Processed in 0.070216 second(s), 17 queries .

Powered by Discuz! X3.4

© 2001-2017 Comsenz Inc.

快速回复 返回顶部 返回列表